<?xml version="1.0" standalone="no"?>
<!DOCTYPE svg PUBLIC "-//W3C//DTD SVG 1.1//EN" "http://www.w3.org/Graphics/SVG/1.1/DTD/svg11.dtd" >
<svg xmlns="http://www.w3.org/2000/svg">
<metadata>Generated by IcoMoon</metadata>
<defs>
<font id="icomoon" horiz-adv-x="1024">
<font-face units-per-em="1024" ascent="960" descent="-64" />
<missing-glyph horiz-adv-x="1024" />
<glyph unicode="&#x20;" horiz-adv-x="512" d="" />
<glyph unicode="&#xe900;" glyph-name="angle-dubble-left" d="M1052.783 889.292c18.466-18.291 18.586-47.944-0.128-66.234l-276.793-271.055-4.886-4.176c-18.711-13.914-45.455-12.464-62.436 4.364-9.205 9.114-13.898 21.098-13.898 33.021 0 11.986 4.693 24.034 14.024 33.149l276.79 271.118 4.89 4.176c18.714 13.915 45.449 12.46 62.438-4.363zM1056.947 68.070c14.285-18.355 12.766-44.672-4.164-61.44-18.526-18.287-48.666-18.347-67.328-0.060l-416.765 408.268-4.278 4.784c-6.485 8.329-9.746 18.324-9.746 28.365 0 11.924 4.696 23.91 13.897 33.024 18.529 18.353 48.67 18.415 67.325 0.125l416.775-408.271 4.284-4.796zM540.78 889.292c18.466-18.291 18.591-47.944-0.125-66.234l-276.793-271.055-4.886-4.176c-18.711-13.914-45.455-12.464-62.436 4.364-9.205 9.114-13.898 21.098-13.898 33.021 0 11.986 4.693 24.034 14.024 33.149l276.787 271.118 4.892 4.176c18.711 13.915 45.449 12.46 62.436-4.363zM544.945 68.070c14.285-18.355 12.766-44.672-4.159-61.44-18.528-18.287-48.668-18.347-67.328-0.060l-416.767 408.268-4.278 4.784c-6.485 8.329-9.746 18.324-9.746 28.365 0 11.924 4.696 23.91 13.897 33.024 18.529 18.353 48.67 18.415 67.325 0.125l416.772-408.271 4.284-4.796z" />
<glyph unicode="&#xe901;" glyph-name="angle-left" d="M754.114 889.271c18.466-18.291 18.591-47.944-0.125-66.235l-276.793-271.055-4.886-4.175c-18.711-13.915-45.455-12.465-62.436 4.363-9.205 9.114-13.898 21.099-13.898 33.022 0 11.986 4.693 24.034 14.024 33.149l276.787 271.118 4.892 4.176c18.711 13.915 45.449 12.46 62.436-4.363zM758.278 68.053c14.285-18.364 12.766-44.681-4.159-61.44-18.528-18.295-48.668-18.355-67.328-0.068l-416.767 408.272-4.278 4.785c-6.485 8.329-9.746 18.324-9.746 28.365 0 11.924 4.696 23.91 13.897 33.024 18.529 18.353 48.67 18.415 67.325 0.125l416.772-408.267 4.284-4.796z" />
<glyph unicode="&#xe902;" glyph-name="angle-left-fill" d="M117.507 544.512c4.821 4.95 23.026 26.112 39.986 43.52 99.423 109.482 358.792 288.683 494.541 343.381 20.616 8.789 72.737 27.392 100.59 28.587 26.684 0 52.122-6.144 76.399-18.603 30.259-17.408 54.528-44.8 67.831-77.141 8.559-22.443 21.862-89.6 21.862-90.794 13.304-73.472 20.617-192.854 20.617-324.78 0-125.696-7.313-240.212-18.202-314.794-1.254-1.194-14.55-84.65-29.098-113.238-26.684-52.224-78.806-84.65-134.588-84.65h-4.822c-36.325 1.28-112.724 33.706-112.724 34.902-128.435 54.784-381.819 225.194-483.653 338.432 0 0-28.681 29.098-41.15 47.274-19.452 26.112-29.095 58.454-29.095 90.794 0 36.096 10.89 69.718 31.507 97.11z" />
<glyph unicode="&#xe903;" glyph-name="angle-right" d="M269.887 889.271c-18.466-18.291-18.591-47.944 0.125-66.235l276.793-271.055 4.886-4.175c18.711-13.915 45.455-12.465 62.436 4.363 9.205 9.114 13.898 21.099 13.898 33.022 0 11.986-4.693 24.034-14.024 33.149l-276.787 271.118-4.892 4.176c-18.711 13.915-45.449 12.46-62.436-4.363zM265.722 68.053c-14.285-18.364-12.766-44.681 4.159-61.44 18.529-18.295 48.668-18.355 67.328-0.068l416.767 408.272 4.278 4.785c6.485 8.329 9.746 18.324 9.746 28.365 0 11.924-4.696 23.91-13.897 33.024-18.529 18.353-48.67 18.415-67.325 0.125l-416.772-408.267-4.284-4.796z" />
<glyph unicode="&#xe904;" glyph-name="arrow-left" d="M578.276 448.375l-0.091 20.144c-0.688 79.9-5.507 151.186-13.813 196.362 0 0.815-9.062 45.62-14.831 60.534-9.062 21.556-25.446 39.854-45.989 51.447-16.447 8.272-33.695 12.47-51.758 12.47-14.194-0.658-37.609-7.802-54.316-13.791l-13.886-5.321c-91.973-36.533-267.789-155.91-335.123-228.912l-4.964-5.103-22.156-23.91c-13.963-18.301-21.349-40.67-21.349-64.734 0-21.555 6.578-43.116 19.735-60.535 3.939-5.643 10.283-12.885 15.931-19.001l21.565-22.574c74.209-75.19 234.886-180.656 318.17-215.598 0-0.757 51.756-22.374 76.394-23.188h3.288c37.797 0 73.108 21.555 91.17 56.4 4.932 9.523 9.665 28.183 13.261 44.567l6.474 30.942c7.384 49.755 12.288 126.083 12.288 209.801zM938.479 361.626c47.229 0 85.521 38.662 85.521 86.352 0 47.684-38.292 86.352-85.521 86.352l-210.443-18.614c-37.046 0-67.083-30.265-67.083-67.738 0-37.416 30.037-67.743 67.083-67.743l210.443-18.608z" />
<glyph unicode="&#xe905;" glyph-name="cart" d="M52.296 959.353c-24.302 4.108-47.419-11.766-51.632-35.455s12.071-46.222 36.373-50.33c53.267-9.003 95.206-49.292 105.217-101.079l5.745-29.718c-23.346-33.981-40.969-72.1-51.54-113.103-25.14-97.507-25.14-199.56 0-297.062 2.145-8.323 4.582-16.526 7.297-24.599 1.963-5.837 4.072-11.605 6.322-17.306l10.686-27.227h1.41c21.067-42.542 50.345-80.338 85.845-111.514-7.475-9.256-13.669-19.502-18.37-30.481-9.855-23.017-12.742-48.304-8.319-72.869 4.422-24.57 15.969-47.388 33.275-65.758 17.306-18.375 39.647-31.528 64.382-37.916s50.828-5.734 75.195 1.877c24.367 7.612 45.987 21.868 62.308 41.079 16.060 18.916 26.328 41.853 29.622 66.179 66.395-9.825 133.882-10.251 200.374-1.274 2.253-20.662 9.54-40.567 21.333-58.027 14.114-20.89 34.088-37.393 57.543-47.542s49.414-13.517 74.775-9.705c25.367 3.817 49.072 14.649 68.301 31.215s33.172 38.172 40.175 62.236c6.997 24.070 6.758 49.59-0.694 73.529-4.654 14.962-11.998 28.905-21.623 41.222 38.793 32.319 70.645 72.329 93.133 117.749h1.411l10.689 27.238c2.076 5.257 4.033 10.576 5.865 15.952 2.901 8.505 5.49 17.158 7.754 25.941 25.139 97.502 25.139 199.555 0 297.061-34.332 133.154-143.019 235.895-280.61 265.258l-24.587 5.247c-98.27 20.972-200.027 20.972-298.297 0l-24.588-5.247c-58.4-12.463-111.593-38.146-156.103-73.763-26.284 71.475-90.198 124.928-168.665 138.19zM396.167 152.4c-70.438 15.030-130.901 55.387-170.812 111.076h650.894c-39.908-55.689-100.375-96.046-170.809-111.076l-24.593-5.251c-85.68-18.284-174.41-18.284-260.090 0l-24.589 5.251zM735.056 66.094c-0.011 1.234 0.023 2.463 0.119 3.681 26.675 6.497 52.196 15.775 76.22 27.506 5.126-5.035 8.932-11.224 11.054-18.045 2.486-7.982 2.566-16.486 0.228-24.508-2.332-8.027-6.98-15.223-13.386-20.747-6.411-5.524-14.313-9.136-22.767-10.405-8.459-1.274-17.106-0.148-24.929 3.231-7.817 3.385-14.478 8.886-19.183 15.849s-7.259 15.098-7.356 23.438zM281.445 101.7c24.028-12.521 49.648-22.556 76.497-29.753 0.037-2.025-0.071-4.056-0.327-6.087-1.042-8.249-4.486-16.037-9.926-22.443-5.439-6.4-12.646-11.156-20.768-13.693s-16.82-2.753-25.065-0.626c-8.245 2.128-15.692 6.514-21.461 12.641-5.769 6.121-9.618 13.727-11.092 21.919-1.474 8.186-0.511 16.617 2.773 24.292 2.204 5.143 5.392 9.808 9.368 13.75zM604.882 719.035c3.243 18.972 21.652 31.789 41.114 28.627l2.429-0.395c118.909-19.318 206.057-119.602 206.057-237.11 0-19.234-15.991-34.822-35.726-34.822-19.729 0-35.726 15.588-35.726 34.822 0 83.459-61.901 154.685-146.352 168.406l-2.429 0.395c-19.462 3.162-32.614 21.105-29.366 40.077z" />
<glyph unicode="&#xe906;" glyph-name="chart" d="M1024 520.95c0-21.637-17.541-39.178-39.178-39.178h-0.451c-10.429 0-20.419 4.204-27.704 11.663-7.291 7.455-11.264 17.541-11.018 27.965v118.431c0 155.807-86.011 241.816-241.818 241.816h-383.662c-156.257 0-241.816-86.009-241.816-241.816v-384.113c0-155.807 86.009-241.367 241.816-241.367h383.662c156.257 0 241.818 86.011 241.818 241.367 0 21.637 17.536 39.178 39.173 39.178s39.178-17.541 39.178-39.178c0-197.233-122.486-319.718-319.718-319.718h-384.113c-197.685 0-320.169 122.486-320.169 319.718v384.113c0 197.685 122.484 320.169 320.169 320.169h383.662c196.787 0 320.169-122.484 320.169-320.169v-118.881zM253.974 207.985v327.823c0.35 10.358 4.834 20.139 12.45 27.163s17.729 10.703 28.078 10.215c10.393-0.352 20.218-4.822 27.314-12.423s10.876-17.715 10.512-28.103v-327.373c-0.746-21.637-18.891-38.574-40.528-37.827-21.637 0.742-38.572 18.888-37.826 40.525zM474.624 687.564v-480.030c0-21.637 17.541-39.173 39.178-39.173s39.178 17.536 39.178 39.173v480.030c0 21.637-17.541 39.177-39.178 39.177s-39.178-17.54-39.178-39.177zM691.671 207.985v153.108c0 21.632 17.541 39.173 39.178 39.173s39.178-17.541 39.178-39.173v-153.108c0-21.637-17.541-39.173-39.178-39.173s-39.178 17.536-39.178 39.173z" />
<glyph unicode="&#xe907;" glyph-name="download" d="M496.519 899.63c-20.946 0-37.926-16.98-37.926-37.926v-487.63l-142.148 142.148c-6.863 6.862-16.343 11.105-26.815 11.105s-19.952-4.244-26.815-11.105v0c-6.884-6.867-11.142-16.362-11.142-26.852s4.259-19.985 11.142-26.851l206.89-206.816c6.862-6.864 16.343-11.109 26.815-11.111v0c10.472 0.002 19.953 4.248 26.815 11.111l206.815 206.889c6.862 6.863 11.105 16.343 11.105 26.815s-4.244 19.952-11.105 26.815v0c-6.863 6.862-16.343 11.105-26.815 11.105s-19.952-4.244-26.815-11.105l-142.074-142.148v487.63c0 20.946-16.98 37.926-37.926 37.926v0zM206.869 688.673c0 25.229-23.839 44-47.413 35.012-125.273-47.757-159.455-148.484-159.455-346.261 0-316.663 87.63-384.535 496.485-384.535 408.857 0 496.485 67.872 496.485 384.535 0 197.777-34.183 298.505-159.456 346.261-23.575 8.987-47.411-9.783-47.411-35.012v0c0-17.197 11.446-32.004 27.318-38.625 15.762-6.576 28.194-13.838 38.18-21.574 41.654-32.261 65.517-92.837 65.517-251.050 0-158.208-23.863-218.787-65.517-251.047-22.896-17.734-58.626-32.973-117.919-43.182-59.278-10.202-136.291-14.454-237.196-14.454-100.902 0-177.918 4.251-237.194 14.454-59.296 10.21-95.026 25.448-117.922 43.182-41.653 32.26-65.516 92.839-65.516 251.047 0 158.213 23.863 218.789 65.516 251.050 9.988 7.736 22.419 14.998 38.182 21.574 15.872 6.621 27.318 21.428 27.318 38.625v0z" />
<glyph unicode="&#xe908;" glyph-name="email" d="M0 755.2c0 56.32 46.080 102.4 102.4 102.4h819.2c56.32 0 102.4-46.080 102.4-102.4v-614.4c0-56.32-46.080-102.4-102.4-102.4h-819.2c-56.32 0-102.4 46.080-102.4 102.4v614.4zM102.4 755.2l409.6-256 409.6 256h-819.2zM102.4 140.8h819.2v512l-409.6-256-409.6 256v-512z" />
<glyph unicode="&#xe909;" glyph-name="gps" d="M490.115 958.558c14.529 1.922 29.247 1.922 43.77 0 70.303-9.301 122.84-69.245 122.84-140.16v-45.9c79.861-35.666 144.105-99.911 179.775-179.775h45.898c70.918 0 130.862-52.535 140.163-122.838 1.917-14.529 1.917-29.247 0-43.77-9.301-70.303-69.245-122.84-140.163-122.84h-45.898c-35.669-79.861-99.914-144.105-179.775-179.775v-45.898c0-70.918-52.537-130.862-122.84-140.163-14.524-1.917-29.241-1.917-43.77 0-70.303 9.301-122.838 69.245-122.838 140.163v45.898c-79.865 35.669-144.109 99.914-179.775 179.775h-45.9c-70.915 0-130.858 52.537-140.159 122.84-1.922 14.524-1.922 29.241 0 43.77 9.301 70.303 69.245 122.838 140.16 122.838h45.899c35.666 79.865 99.911 144.109 179.776 179.775v45.899c0 70.915 52.535 130.859 122.838 140.16zM512 611.144c-90.101 0-163.144-73.043-163.144-163.144s73.043-163.14 163.144-163.14c90.101 0 163.14 73.040 163.14 163.14s-73.040 163.144-163.14 163.144zM412.006 448c0 55.222 44.772 99.994 99.994 99.994s99.988-44.772 99.988-99.994c0-55.222-44.766-99.988-99.988-99.988s-99.994 44.766-99.994 99.988z" />
<glyph unicode="&#xe90a;" glyph-name="info-circle" d="M0 448.007c0 282.367 229.683 511.999 512 511.999s512-229.632 512-511.999c0-282.319-229.683-512.002-512-512.002-160.102 0-308.070 72.858-405.862 199.782-12.544 16.333-9.523 39.731 6.81 52.224 16.23 12.595 39.578 9.472 52.173-6.758 83.61-108.544 210.022-170.803 346.88-170.803 241.254 0 437.555 196.25 437.555 437.557 0 241.253-196.301 437.554-437.555 437.554s-437.555-196.301-437.555-437.554c0-22.428 1.69-44.7 5.018-66.511 3.072-20.275-10.854-39.27-31.181-42.394-20.429-3.379-39.322 10.803-42.394 31.13-3.891 25.498-5.888 51.661-5.888 77.775zM512 680.756c-21.196 0-38.399-17.203-38.399-38.4v-226.305c0-21.197 17.203-38.4 38.399-38.4s38.4 17.203 38.4 38.4v226.305c0 21.197-17.203 38.4-38.4 38.4zM512.522 292.055h-0.512c-21.196 0-38.143-17.203-38.143-38.4s17.459-38.4 38.655-38.4c21.197 0 38.4 17.203 38.4 38.4s-17.203 38.4-38.4 38.4z" />
<glyph unicode="&#xe90b;" glyph-name="instagram" d="M680.977 940.447c-111.144 26.070-226.81 26.070-337.951 0-160.502-37.648-285.824-162.97-323.473-323.473-26.070-111.141-26.070-226.807 0-337.951 37.649-160.501 162.971-285.821 323.473-323.47 111.141-26.072 226.807-26.072 337.951 0 160.501 37.649 285.821 162.97 323.47 323.47 26.072 111.144 26.072 226.81 0 337.951-37.649 160.502-162.97 285.825-323.47 323.473zM315.946 448c0 108.277 87.777 196.052 196.054 196.052s196.050-87.776 196.050-196.052c0-108.277-87.774-196.050-196.050-196.050s-196.054 87.774-196.054 196.050zM512 578.701c-72.186 0-130.703-58.515-130.703-130.701s58.516-130.702 130.703-130.702c72.181 0 130.702 58.516 130.702 130.702s-58.522 130.701-130.702 130.701zM729.833 638.606c30.077 0 54.46 24.382 54.46 54.459s-24.383 54.459-54.46 54.459c-30.077 0-54.46-24.382-54.46-54.459s24.383-54.459 54.46-54.459z" />
<glyph unicode="&#xe90c;" glyph-name="login" d="M506.168 960h258.012c129.004 0 234.22-102.4 234.22-227.328v-569.344c0-125.44-105.216-227.328-235.279-227.328h-257.48c-129.008 0-234.75 101.888-234.75 226.816v245.76h327.801l-84.593-81.92c-15.862-15.36-15.862-40.448 0-55.808 7.931-7.68 18.504-11.264 29.076-11.264 10.045 0 20.623 3.584 28.554 11.264l154.383 148.992c7.931 7.168 12.16 17.408 12.16 28.16 0 10.24-4.229 20.48-12.16 27.648l-154.383 148.992c-15.862 15.36-41.769 15.36-57.631 0s-15.862-40.448 0-55.808l84.593-81.408h-327.801v244.736c0 125.44 105.742 227.84 235.278 227.84zM25.6 448.005c0 21.504 18.188 39.424 40.013 39.424h205.262v-78.848h-205.262c-21.825 0-40.013 17.408-40.013 39.424z" />
<glyph unicode="&#xe90d;" glyph-name="phone" d="M928.236 757.863c26.368-36.231 24.525-82.646-3.789-144.822-8.755-19.293-0.256-42.014 19.046-50.816 19.354-8.751 42.035-0.307 50.847 19.037 40.294 88.377 39.526 162.17-2.253 219.126-15.57 26.047-113.413 139.295-197.432 133.819-26.424-2.201-50.591-14.482-73.272-36.589-24.166-23.591-125.645-147.022-133.786-186.068-8.75-41.977 10.102-74.759 23.875-98.703l0.036-0.062c13.568-23.591 18.278-33.673 13.619-46.415-34.253-83.77-87.199-152.24-156.882-201.98-17.254-12.385-21.197-36.337-8.858-53.581 7.475-10.44 19.251-16.067 31.232-16.067 7.782 0 15.565 2.35 22.323 7.163 81.618 58.388 143.468 138.066 183.864 236.882 17.766 48.871-3.328 85.511-18.739 112.275-11.571 20.060-17.971 32.035-15.258 44.829 7.168 18.473 82.022 117.29 112.23 146.715 9.318 9.16 18.079 14.533 24.581 15.045 36.659 0.87 111.616-71.592 128.614-99.789zM222.843 346.962c-39.219-8.136-162.565-109.563-186.169-133.663-22.221-22.723-34.509-46.93-36.608-71.849-3.328-94.316 122.983-192.876 137.472-201.165 27.546-19.855 59.858-29.885 96.21-29.885 36.147 0 76.288 9.928 119.757 30.193 167.173 69.391 420.004 294.405 562.243 500.89 12.032 17.449 7.629 41.349-9.83 53.371-17.51 11.873-41.421 7.578-53.402-9.876-132.869-192.87-375.562-409.999-529.987-474.173-62.464-29.015-108.954-30.807-143.57-5.985-26.982 16.323-103.629 92.467-102.246 132.076 0.461 4.659 5.786 13.409 14.848 22.671 29.491 30.193 128.466 105.062 149.151 112.84 16.333 3.476 33.331-6.451 59.238-22.774l13.107-8.136c18.176-10.9 41.779-5.12 52.736 13.102 10.906 18.115 5.069 41.702-13.107 52.654l-11.827 7.322c-28.672 18.063-68.25 42.726-118.016 32.389z" />
<glyph unicode="&#xe90e;" glyph-name="phone-2" d="M826.874 846.219c-3.341-50.631-11.699-100.125-25.069-147.342l66.854-68.267c22.842 68.267 37.325 140.515 42.342 215.609h-84.128zM277.396 162.406c-47.355-13.651-95.825-22.189-144.851-25.6v-84.762c73.54 5.12 144.294 19.91 211.706 42.662l-66.854 67.699zM773.299 960h194.989c30.643 0 55.712-25.6 55.712-56.889 0-534.187-423.967-967.111-947.102-967.111-30.641 0-55.712 25.6-55.712 56.89v198.541c0 31.29 25.070 56.89 55.712 56.89 69.083 0 136.494 11.379 198.892 32.429 5.571 2.272 11.7 2.842 17.271 2.842 14.485 0 28.413-5.69 39.555-16.499l122.566-125.152c157.664 82.49 286.917 213.901 367.141 374.897l-122.566 125.155c-15.597 15.929-20.058 38.116-13.926 58.027 20.614 63.715 31.757 131.982 31.757 203.093 0 31.289 25.069 56.889 55.712 56.889z" />
<glyph unicode="&#xe90f;" glyph-name="search" d="M24.571 512.865c0 233.483 187.262 422.76 418.26 422.76 110.933 0 217.317-44.541 295.758-123.824 78.438-79.283 122.507-186.815 122.507-298.936 0-233.487-187.265-422.767-418.265-422.767-230.998 0-418.26 189.281-418.26 422.767zM854.177 172.288l124.57-100.549h2.165c25.198-25.476 25.198-66.772 0-92.248-25.205-25.476-66.063-25.476-91.268 0l-103.38 118.477c-9.772 9.845-15.265 23.216-15.265 37.164 0 13.941 5.493 27.312 15.265 37.157 18.849 18.725 49.064 18.725 67.913 0z" />
<glyph unicode="&#xe910;" glyph-name="user" horiz-adv-x="819" d="M207.788 685.882c0 110.589 90.525 200.546 201.812 200.546s201.81-89.956 201.81-200.546c0-110.538-90.522-200.496-201.81-200.496s-201.812 89.958-201.812 200.496zM133.751 685.882c0-151.088 123.756-274.065 275.849-274.065 152.095 0 275.799 122.977 275.799 274.065 0 151.139-123.704 274.118-275.799 274.118-152.093 0-275.849-122.979-275.849-274.118zM357.253-63.232c17.157-0.512 34.621-0.768 52.347-0.768 175.846 0 409.6 19.507 409.6 187.899 0 188.974-308.306 188.974-409.6 188.974-175.845 0-409.6-19.507-409.6-187.95 0-50.432 23.597-118.472 136.018-156.308 19.424-6.656 40.342 3.84 46.937 23.040 6.543 19.2-3.812 40.038-23.185 46.541-76.922 25.902-85.784 61.896-85.784 86.728 0 75.93 112.936 114.432 335.614 114.432s335.616-38.861 335.616-115.456c0-75.878-112.937-114.324-335.616-114.324-17.004 0-33.746 0.205-50.232 0.666-19.784-0.154-37.407-15.411-37.975-35.686-0.614-20.326 15.457-37.274 35.86-37.786z" />
<glyph unicode="&#xe911;" glyph-name="user-plus" d="M384 419.651c141.036 0 254.085 114.514 254.085 257.375 0 142.859-113.050 257.374-254.085 257.374-141.034 0-254.087-114.515-254.087-257.374 0-142.861 113.053-257.375 254.087-257.375zM384 293.622c-207.144 0-384-33.121-384-165.437 0-132.27 175.78-166.584 384-166.584 207.094 0 384 33.121 384 165.443 0 132.316-175.78 166.579-384 166.579zM916.372 571.502h61.599c25.354 0 46.029-20.964 46.029-46.676 0-25.708-20.675-46.674-46.029-46.674h-61.599v-60.278c0-25.713-20.618-46.674-46.024-46.674-25.354 0-46.029 20.961-46.029 46.674v60.278h-61.491c-25.411 0-46.029 20.966-46.029 46.674 0 25.712 20.618 46.676 46.029 46.676h61.491v60.223c0 25.711 20.675 46.675 46.029 46.675 25.405 0 46.024-20.964 46.024-46.675v-60.223z" />
<glyph unicode="&#xe912;" glyph-name="grid" d="M975.192 767.701v-139.565c0.453-37.947-13.868-74.525-39.834-101.688-25.966-27.16-61.433-42.681-98.604-43.145h-56.752c-19.222 2.102-33.807 18.666-33.807 38.405s14.585 36.3 33.807 38.401h55.033c17.408 0.116 34.048 7.316 46.234 20.004 12.193 12.688 18.915 29.816 18.688 47.584v140.003c-0.468 36.402-29.264 65.798-64.922 66.27h-137.145c-35.854 0-64.916-29.67-64.916-66.27v-209.346c-0.702-21.228-17.891-37.997-38.693-37.743-9.996 0.229-19.49 4.535-26.356 11.957s-10.538 17.339-10.187 27.541v207.591c-0.117 38.021 14.599 74.526 40.896 101.453s62.011 42.061 99.255 42.061h137.145c76.8-1.862 138.562-65.104 140.156-143.513zM326.87 911.214h-137.144c-77.447-0.479-140.114-64.453-140.583-143.513v-140.003c0.472-78.989 63.206-142.838 140.583-143.077h137.144c37.246-0.117 73.005 14.907 99.382 41.751 26.375 26.846 41.204 63.304 41.204 101.326v140.003c-0.239 79.16-63.042 143.273-140.586 143.513zM391.788 627.697c0.23-17.768-6.494-34.896-18.681-47.584s-28.83-19.888-46.237-20.004h-137.144c-17.665-0.361-34.712 6.643-47.206 19.397s-19.355 30.157-19.001 48.19v140.003c-0.003 17.806 7.013 34.865 19.468 47.332s29.3 19.292 46.74 18.938h137.144c35.756-0.239 64.684-29.77 64.918-66.27v-140.003zM697.89 411.331h137.145c77.378-0.238 140.112-64.088 140.581-143.077v-139.998c-0.468-79.067-63.137-143.038-140.581-143.521h-137.145c-77.375 0.483-139.917 64.527-140.151 143.521v139.998c0 79.018 62.747 143.077 140.151 143.077zM881.064 81.262c12.2 12.456 19.003 29.381 18.893 46.994v139.998c0 17.579-6.846 34.431-19.017 46.86s-28.687 19.412-45.904 19.412h-137.145c-35.854 0-64.916-29.672-64.916-66.273v-139.998c-0.117-17.613 6.685-34.538 18.885-46.994s28.78-19.397 46.031-19.28h137.145c17.247-0.117 33.829 6.824 46.029 19.28zM49.143 128.688v139.567c0 38.020 14.825 74.479 41.202 101.323 26.378 26.849 62.136 41.867 99.381 41.75h56.32c14.4 1.575 28.416-5.379 36.098-17.91 7.682-12.537 7.682-28.443 0-40.975-7.682-12.537-21.699-19.49-36.098-17.915h-56.32c-35.923 0-65.111-29.604-65.347-66.273v-138.25c0.914-36.374 29.708-65.573 65.347-66.267h138.004c17.292-0.117 33.915 6.81 46.182 19.251s19.166 29.367 19.165 47.016v207.595c-2.804 15.501 3.904 31.188 16.946 39.629 13.040 8.441 29.8 7.943 42.341-1.258 12.537-9.201 18.34-25.259 14.659-40.565v-206.717c0-79.258-62.939-143.514-140.582-143.514h-136.715c-76.97 1.631-138.986 64.936-140.583 143.514z" />
<glyph unicode="&#xe913;" glyph-name="edit" horiz-adv-x="1073" d="M856.225 838.15c35.869-27.417 60.396-63.474 68.969-101.605 9.572-42.566-1.009-85.765-29.73-121.477l-489.858-609.168c-24.762-30.813-61.993-48.786-102.239-49.303l-189.526-2.306c-20.625 0-38.532 13.824-43.201 33.407l-42.787 179.361c-9.101 38.195-0.118 77.761 24.703 108.578l64.298 80.004c15.070 18.778 42.964 22.118 62.229 7.314 19.266-14.687 22.635-41.872 7.506-60.65l-64.299-80.004c-8.155-10.138-11.11-23.099-8.096-35.655l34.691-145.496 153.359 1.843c13.179 0.171 25.412 6.046 33.567 16.184l489.86 609.17c12.527 15.552 16.842 32.256 12.941 49.765-4.198 18.49-17.315 36.979-37.054 52.012l-82.144 62.84c-31.793 24.192-76.649 36.633-107.262-1.555l-64.712-80.409 102.712-80.292c19.085-14.861 22.157-42.105 6.856-60.652-8.748-10.713-21.631-16.243-34.636-16.243-9.689 0-19.5 3.111-27.658 9.504l-101.942 79.659-167.6-208.449c-15.129-18.776-42.964-22.179-62.289-7.317-19.207 14.69-22.575 41.877-7.505 60.649l286.98 356.887c55.667 69.349 153.181 76.146 231.721 16.185l82.144-62.783zM627.19 40.687h376.866c24.469 0 44.325-19.354 44.325-43.203 0-23.845-19.856-43.198-44.325-43.198h-376.866c-24.522 0-44.32 19.354-44.32 43.198 0 23.849 19.797 43.203 44.32 43.203z" />
<glyph unicode="&#xe914;" glyph-name="email-2" horiz-adv-x="1117" d="M1101.698 539.94c0-21.379-17.203-38.712-38.433-38.712l-0.475 0.966c-10.193 0-19.968 4.078-27.173 11.338-7.21 7.261-11.255 17.105-11.255 27.374v78.39c-1.303 131.739-106.999 238.214-237.768 239.525h-455.852c-130.774-1.311-236.47-107.786-237.77-239.525v-342.593c1.301-131.742 106.996-238.215 237.77-239.523h455.852c130.769 1.308 236.465 107.781 237.768 239.523 2.197 19.842 18.851 34.849 38.665 34.849 19.819 0 36.468-15.006 38.67-34.849-0.526-175.090-141.298-316.9-315.103-317.431h-455.852c-173.918 0.265-314.842 142.229-315.106 317.431v342.593c0 175.312 141.078 317.431 315.106 317.431h455.852c173.805-0.532 314.577-142.339 315.103-317.431v-79.356zM598.775 455.745l223.358 180.004h0.484c16.635 13.319 40.792 10.733 54.277-5.807 6.423-8.064 9.379-18.382 8.206-28.653s-6.377-19.643-14.452-26.027l-223.358-180.492c-56.79-46.038-137.747-46.038-194.54 0l-223.838 180.492c-16.42 13.584-18.985 37.925-5.765 54.68 6.32 8.030 15.577 13.167 25.692 14.258s20.241-1.954 28.107-8.452l225.765-180.004c28.197-22.291 67.868-22.291 96.065 0z" />
<glyph unicode="&#xe915;" glyph-name="location" horiz-adv-x="870" d="M435.195 960h1.71c239.944-0.943 434.432-196.709 433.49-436.342v-4.762c-3.241-171.249-106.194-313.359-191.974-402.396-24.412-25.457-50.396-49.884-77.194-72.694-16.051-13.696-40.146-11.812-53.857 4.219-13.711 16.077-11.781 40.141 4.27 53.837 24.817 21.146 48.957 43.868 71.665 67.528 76.339 79.206 167.875 204.436 170.66 350.899 0.763 201.2-159.514 362.617-357.371 363.425h-1.398c-197.186 0-358.002-159.845-358.766-356.912 3.372-97.347 36.281-189.885 95.222-267.52 68.786-91.597 173.135-188.58 272.314-253.148 17.71-11.494 22.702-35.113 11.146-52.803-7.281-11.223-19.553-17.331-32.056-17.331-7.148 0-14.341 1.976-20.813 6.195-106.192 69.105-217.958 173.005-291.645 271.109-68.382 90.117-106.641 197.652-110.598 310.845 0.944 242.015 196.018 435.85 435.195 435.85zM345.866 518.958c0-49.080 40.013-89.083 89.196-89.083s89.196 40.003 89.196 89.083c0 49.119-40.013 89.125-89.196 89.125-21.084 0-38.216 17.062-38.216 38.12 0 21.104 17.132 38.166 38.216 38.166 91.31 0 165.627-74.175 165.627-165.411 0-91.192-74.317-165.371-165.627-165.371s-165.626 74.179-165.626 165.371c0 21.1 17.129 38.163 38.215 38.163s38.216-17.064 38.216-38.163z" />
<glyph unicode="&#xe916;" glyph-name="calendar" horiz-adv-x="960" d="M688.755 922.364v-52.987c154.042-14.945 232.845-100.086 232.845-253.158v-423.439c0-170.285-97.062-256.781-288.056-256.781h-345.488c-190.998 0-288.056 86.496-288.056 256.781v423.439c0 101.897 34.727 174.811 105.962 217.381 11.228 7.665 25.756 8.2 37.501 1.381s18.68-19.814 17.903-33.547c-0.776-13.733-9.132-25.834-21.569-31.237-47.192-28.078-69.453-76.989-69.453-153.978v-13.586h649.572c19.424 0 35.168-16.018 35.168-35.777s-15.744-35.779-35.168-35.779h-649.572v-338.296c0-129.971 63.221-183.866 217.711-184.774h345.488c152.261 0 217.266 55.251 217.266 185.229v423.437c0 113.219-49.414 168.017-162.054 181.15v-34.418c-2.605-18.346-18.394-31.738-36.602-31.039-18.205 0.699-32.961 15.264-34.19 33.756v159.413c0.343 9.573 4.449 18.606 11.392 25.075 6.948 6.469 16.155 9.835 25.556 9.343 19.392-1.213 34.355-17.833 33.843-37.589zM292.289 740.209c-6.692-6.723-15.754-10.439-25.159-10.317-19.251 0.494-34.531 16.644-34.282 36.23v156.242c2.024 18.329 17.262 32.186 35.395 32.186s33.371-13.857 35.395-32.186v-49.364h201.24c19.425 0 35.169-16.018 35.169-35.777s-15.744-35.777-35.169-35.777h-202.131v-35.777c0.001-9.568-3.766-18.737-10.458-25.46zM675.392 416.502c-24.582 0-44.521-20.275-44.521-45.286s19.939-45.292 44.521-45.292c24.595 0 44.525 20.28 44.525 45.292 0 12.088-4.749 23.675-13.197 32.184-8.442 8.504-19.885 13.225-31.77 13.102h0.442zM417.167 371.215c0 25.011 19.932 45.286 44.524 45.286 24.586 0 44.524-20.275 44.524-45.286s-19.937-45.292-44.524-45.292c-24.591 0-44.524 20.28-44.524 45.292zM248.431 416.502c-24.589 0-44.522-20.275-44.522-45.286s19.933-45.292 44.522-45.292c24.589 0 44.522 20.28 44.522 45.292 0.001 12.088-4.751 23.675-13.197 32.184-8.445 8.504-19.885 13.225-31.77 13.102h0.445zM630.871 187.802c0 25.011 19.939 45.286 44.521 45.286h-0.442c11.885 0.115 23.328-4.595 31.77-13.101 8.448-8.512 13.197-20.096 13.197-32.186 0-25.018-19.93-45.293-44.525-45.293-24.582 0-44.521 20.275-44.521 45.293zM461.691 233.088c-24.591 0-44.524-20.275-44.524-45.286 0-25.018 19.932-45.293 44.524-45.293 24.586 0 44.524 20.275 44.524 45.293 0 25.011-19.937 45.286-44.524 45.286zM203.91 187.802c0 25.011 19.933 45.286 44.522 45.286h-0.445c11.885 0.115 23.324-4.595 31.77-13.101 8.446-8.512 13.198-20.096 13.197-32.186 0-25.018-19.933-45.293-44.522-45.293s-44.522 20.275-44.522 45.293z" />
<glyph unicode="&#xe917;" glyph-name="instagram-2" d="M511.773 867.98c136.896 0 152.762-0.453 206.704-3.173 49.862-2.266 77.062-10.426 95.194-17.678 24.026-9.066 40.797-20.399 58.928-38.077 18.131-18.132 29.011-34.904 38.077-58.928 6.8-18.132 15.411-45.33 17.68-95.193 2.266-53.942 3.171-70.262 3.171-206.703 0-136.896-0.451-152.762-3.171-206.704-2.269-49.862-10.426-77.062-17.68-95.194-9.066-24.026-20.397-40.797-38.077-58.928-18.131-18.131-34.902-29.011-58.928-38.077-18.131-6.8-45.331-15.411-95.194-17.68-53.942-2.266-70.259-3.171-206.704-3.171-136.896 0-152.762 0.451-206.703 3.171-49.863 2.269-77.060 10.426-95.192 17.68-24.025 9.066-40.797 20.397-58.929 38.077-18.132 18.131-29.011 34.902-38.077 58.928-6.8 18.131-15.412 45.331-17.679 95.194-2.267 53.942-3.173 70.262-3.173 206.704 0 136.896 0.453 152.762 3.173 206.703 2.267 49.863 10.426 77.061 17.679 95.193 9.066 24.025 20.398 40.796 38.077 58.928 18.132 18.132 34.904 29.012 58.929 38.077 18.132 6.799 45.33 15.412 95.192 17.678 53.491 2.72 69.807 3.173 206.703 3.173zM511.773 960c-139.162 0-156.387-0.453-211.236-3.173-54.396-2.267-91.566-11.333-124.204-23.572-33.544-13.146-62.102-30.371-90.66-58.929s-45.783-57.116-58.929-90.66c-12.692-32.637-21.305-69.808-23.572-124.203-2.72-54.395-3.173-72.075-3.173-211.237s0.453-156.387 3.173-211.238c2.266-54.394 11.332-91.565 23.572-124.202 13.146-33.546 30.371-62.102 58.929-90.662 28.558-28.557 57.116-45.782 90.66-58.928 32.637-12.691 69.808-21.302 124.204-24.022 54.395-2.269 72.075-3.174 211.236-3.174 139.165 0 156.387 0.454 211.238 3.174 54.394 2.266 91.565 11.331 124.202 24.022 33.546 13.146 62.102 30.371 90.659 58.928 28.56 28.56 45.786 57.117 58.931 90.662 12.691 32.637 21.306 69.808 24.026 124.202 2.266 54.397 3.171 72.077 3.171 211.238s-0.454 156.387-3.171 211.237c-2.269 54.396-11.334 91.566-24.026 124.203-13.146 33.544-30.371 62.102-58.931 90.66-28.557 28.558-57.114 45.783-90.659 58.929-32.637 12.692-69.808 21.305-124.202 23.572-54.851 2.72-72.074 3.173-211.238 3.173zM511.507 711.145c-145.056 0-262.914-117.858-262.914-262.914 0-145.053 117.858-262.912 262.914-262.912s262.912 117.859 262.912 262.912c0 145.056-117.856 262.914-262.912 262.914zM511.507 277.338c-94.288 0-170.442 76.608-170.442 170.442 0 94.285 76.608 170.438 170.442 170.438 94.285 0 170.438-76.608 170.438-170.438 0-93.834-76.154-170.442-170.438-170.442zM846.173 721.566c0-33.997-27.651-61.649-61.648-61.649-34 0-61.651 27.651-61.651 61.649s27.651 61.648 61.651 61.648c34.448-0.453 61.648-27.651 61.648-61.648z" />
<glyph unicode="&#xe918;" glyph-name="pinterst" horiz-adv-x="800" d="M120.953 367.789c13.393-5.44 25.53-0.419 29.297 14.65 2.511 10.461 9.208 36.41 12.137 47.293 3.767 14.646 2.511 20.090-8.371 32.643-23.856 28.042-38.923 64.035-38.923 115.514 0 148.576 111.327 281.666 289.62 281.666 157.782 0 244.835-96.679 244.835-225.583 0-169.504-74.915-312.637-186.662-312.637-61.523 0-107.558 51.059-92.912 113.418 17.578 74.499 51.898 154.854 51.898 208.844 0 48.13-25.949 88.308-79.52 88.308-62.778 0-113.42-64.871-113.42-152.343 0-55.664 18.833-92.912 18.833-92.912s-64.452-272.877-75.753-320.589c-22.6-95.005-3.348-211.773-1.674-223.491 0.837-7.117 10.044-8.79 13.811-3.347 5.859 7.533 80.775 100.026 106.305 192.518 7.115 25.949 41.433 161.552 41.433 161.552 20.509-38.925 80.358-73.242 143.555-73.242 189.171 0 317.242 172.432 317.242 403.037 0 174.525-147.741 336.912-372.486 336.912-279.574 0-420.198-200.473-420.198-367.462 0.419-101.283 38.504-191.267 120.953-224.749z" />
<glyph unicode="&#xe919;" glyph-name="whatsapp" d="M1023.254 473.789c-6.73 269.827-229.094 486.211-502.285 486.211-270.202 0-490.324-211.526-502.283-476.87-0.374-7.472-0.374-14.576-0.374-22.051 0-94.176 26.535-182.374 72.129-257.494l-90.441-267.584 278.423 88.573c72.127-39.616 154.722-62.038 242.921-62.038 277.677 0 502.656 223.485 502.656 498.918-0.374 3.738-0.374 8.224-0.746 12.336zM520.97 41.763c-85.955 0-165.558 25.414-232.456 69.514l-162.196-51.949 52.694 155.843c-50.452 69.139-80.35 153.974-80.35 245.907 0 13.83 0.748 27.283 2.242 40.739 20.555 212.274 201.437 378.579 420.439 378.579 221.99 0 404.368-170.79 421.184-386.803 1.123-10.835 1.494-21.674 1.494-32.886-0.371-230.96-190.224-418.944-423.053-418.944zM751.094 360.205c-12.333 5.978-72.877 35.875-84.086 39.613-11.213 4.112-19.437 5.981-27.658-5.981-8.221-12.333-32.141-39.613-39.242-47.834-7.472-8.224-14.202-9.344-26.906-2.992-12.333 5.981-51.949 18.688-99.037 60.544-36.627 32.141-61.293 72.128-68.394 84.461s-0.746 18.688 5.232 25.040c5.606 5.606 12.333 14.202 18.688 21.302 1.494 2.243 2.989 4.112 4.483 5.981 2.992 4.483 4.858 8.595 7.85 14.573 4.109 8.224 2.24 15.325-1.123 21.302-2.989 5.981-27.654 66.523-38.118 90.815-10.090 24.292-20.554 20.181-27.654 20.181s-15.325 1.121-23.546 1.121c-8.221 0-21.677-2.99-32.887-15.323-11.212-12.333-42.978-41.857-42.978-102.027 0-14.202 2.616-28.403 6.353-41.482 12.333-42.979 39.24-78.483 44.098-84.835 5.981-7.85 85.21-135.661 210.406-184.621 125.571-48.582 125.571-32.512 147.997-30.269 22.422 1.869 72.874 29.523 82.966 58.301 10.464 28.4 10.461 53.066 7.472 58.301-3.363 4.858-11.584 7.846-23.917 13.827z" />
<glyph unicode="&#xe91a;" glyph-name="youtube" horiz-adv-x="1472" d="M1424.794 800.247c-16.934 63.224-66.045 112.335-128.704 129.27-113.466 30.483-568.451 30.483-568.451 30.483s-454.986 0-568.45-30.483c-62.659-16.935-111.771-66.61-128.706-129.27-30.483-114.028-30.483-352.247-30.483-352.247s0-238.218 30.483-352.246c16.935-63.226 66.046-112.336 128.706-129.27 113.464-30.483 568.45-30.483 568.45-30.483s454.986 0 568.451 30.483c62.659 16.934 111.77 66.611 128.704 129.27 30.483 114.029 30.483 352.246 30.483 352.246s0 238.218-30.483 352.247zM579.174 231.795v432.407l379.907-216.203-379.907-216.205z" />
<glyph unicode="&#xe91b;" glyph-name="arrow-right-fill" d="M720.896 960h-418.305c-180.736 0-302.592-116.275-302.592-289.792v-443.904c0-173.568 121.856-290.304 302.592-290.304h418.305c181.248 0 303.104 116.736 303.104 290.304v443.904c0 173.517-121.856 289.792-303.104 289.792zM628.224 409.6h-325.121c-21.504 0-38.4 17.408-38.4 38.4 0 21.504 16.896 38.4 38.4 38.4h325.121l-126.977 126.464c-7.168 7.168-11.264 17.408-11.264 27.136 0 9.677 4.096 19.456 11.264 27.136 14.849 14.848 39.425 14.848 54.273 0l193.024-192c14.336-14.336 14.336-39.936 0-54.272l-193.024-192c-14.848-14.848-39.424-14.848-54.273 0-14.848 15.36-14.848 39.424 0 54.784l126.977 125.952z" />
<glyph unicode="&#xe91c;" glyph-name="toman" horiz-adv-x="697" d="M328.116 72.388c36.021 7.843 61.004 13.798 74.948 17.866s23.676 9.151 29.195 15.251c5.519 5.811 7.843 14.669 6.972 26.58h-50.111c-24.402 0-44.010 7.697-58.826 23.094-14.526 15.397-21.787 36.021-21.787 61.876 0 16.269 3.486 31.52 10.458 45.753 7.262 14.526 17.14 26.145 29.631 34.86 12.783 8.715 27.162 13.072 43.139 13.072 23.24 0 42.849-9.005 58.826-27.016s25.563-41.396 28.759-70.155l3.050-27.888h25.709l3.050-27.016-3.050-26.58h-20.48c0.871-23.53-3.486-41.977-13.072-55.34s-24.837-23.966-45.753-31.809c-20.916-8.133-51.272-16.412-91.071-24.837l-9.586 52.289zM356.875 217.055c0-10.748 2.468-18.737 7.408-23.966 4.939-4.939 13.218-7.408 24.837-7.408h44.446l-2.179 22.223c-1.453 15.977-5.665 28.177-12.637 36.603s-15.833 12.637-26.58 12.637c-11.040 0-19.754-3.922-26.145-11.765-6.1-7.554-9.151-16.994-9.151-28.323zM503.608 185.682h65.362c13.072 0 22.951 2.033 29.631 6.1 6.972 4.068 10.458 11.183 10.458 21.351 0 5.229-0.871 11.040-2.614 17.43l-16.994 64.926 45.753 13.508 17.866-67.54c2.906-10.458 4.357-20.48 4.357-30.066 0-16.269-3.922-30.356-11.765-42.267-7.551-11.911-18.155-21.062-31.809-27.452-13.362-6.39-28.323-9.586-44.882-9.586h-65.362v53.597zM519.73 395.275h46.625v-46.625h-46.625v46.625zM605.136 395.275h46.625v-46.625h-46.625v46.625zM174.734 421.42c-14.525-3.196-27.742-4.793-39.653-4.793-23.24 0-43.429 5.229-60.569 15.687-16.849 10.458-29.921 25.273-39.217 44.446-9.005 19.173-13.508 41.542-13.508 67.105 0 27.888 5.665 58.1 16.994 90.635l45.317-18.301c-9.586-27.016-14.38-51.564-14.38-73.641 0-23.24 5.519-41.106 16.558-53.597 11.329-12.491 27.452-18.737 48.368-18.737 10.167 0 19.899 1.161 29.195 3.486 20.044 4.647 34.714 8.569 44.010 11.765 9.586 3.196 16.994 7.697 22.223 13.508s7.843 13.944 7.843 24.402c0 2.325-0.29 6.39-0.871 12.201l-17.43 119.394 47.060 7.843c9.876-66.523 15.687-106.468 17.43-119.83 1.161-10.458 1.743-17.72 1.743-21.787 0-19.463-4.503-35.585-13.508-48.368-8.715-13.072-21.062-23.384-37.038-30.938-15.977-7.843-36.167-14.669-60.569-20.48zM122.009 688.967h52.725v-52.725h-52.725v52.725zM427.054 524.255c-20.334 0-36.457 3.050-48.368 9.151-11.619 6.1-20.19 15.977-25.709 29.631s-8.861 32.245-10.022 55.775l-7.843 200.443 47.932 2.614 7.843-203.057c0.582-13.072 1.597-22.369 3.050-27.888 1.743-5.229 4.939-8.715 9.586-10.458s12.491-2.614 23.53-2.614h4.357l3.050-27.016-3.050-26.58h-4.357zM427.182 577.852h4.793c8.135 0 15.397 1.743 21.787 5.229 6.392 3.486 11.186 8.279 14.38 14.38l33.117 64.054c6.1 11.911 14.815 21.206 26.145 27.888s23.53 10.022 36.603 10.022c11.621 0 22.951-2.904 33.988-8.715 13.364-6.972 23.24-16.412 29.631-28.323 6.682-11.619 10.022-24.983 10.022-40.089 0-20.334-5.665-42.703-16.994-67.105-4.647-10.168-11.473-18.301-20.48-24.402-9.005-5.811-18.591-8.715-28.759-8.715-8.715 0-16.994 2.033-24.837 6.1l-50.982 26.145c-16.848-20.044-38.054-30.066-63.619-30.066h-4.793v53.597zM574.9 573.93c2.035-1.161 3.778-1.743 5.229-1.743 2.035 0 3.486 1.307 4.357 3.922l4.793 11.329c4.068 9.005 6.1 18.155 6.1 27.452 0 14.815-5.519 25.127-16.558 30.938-4.647 2.325-9.151 3.486-13.508 3.486-5.808 0-11.329-1.743-16.558-5.229-5.229-3.196-9.294-7.843-12.201-13.944l-14.815-29.631 53.161-26.58z" />
<glyph unicode="&#xe91d;" glyph-name="star" horiz-adv-x="1109" d="M391.921 800.454c51.225 157.655 274.266 157.655 325.49 0 22.909-70.506 88.612-118.241 162.742-118.241 165.777 0 234.692-212.124 100.582-309.56-59.972-43.575-85.069-120.813-62.157-191.319 51.226-157.653-129.22-288.759-263.33-191.317-59.976 43.571-141.189 43.571-201.165 0-134.11-97.442-314.553 33.664-263.328 191.317 22.909 70.506-2.188 147.744-62.164 191.319-134.109 97.436-65.186 309.56 100.582 309.56 74.134 0 139.837 47.735 162.746 118.241z" />
<glyph unicode="&#xe91e;" glyph-name="phone-3" d="M594.76 926.174c2.36 20.862 21.018 36.205 41.682 33.521 205.046-22.887 364.334-183.102 387.313-389.548 2.365-20.863-12.57-39.7-33.234-41.978-1.459-0.154-2.867-0.251-4.275-0.251-18.908 0-35.246 14.331-37.412 33.722-19.103 170.949-150.943 303.617-320.737 322.606-20.716 2.329-35.599 21.065-33.336 41.927zM94.022 774.553c-25.894-35.851-24.084-81.829 3.721-143.352 8.598-19.090 0.251-41.573-18.705-50.282-18.905-8.709-41.331-0.253-49.929 18.837-39.521 87.45-38.817 160.467 2.212 216.877 8.648 14.685 104.333 138.339 193.882 132.415 25.895-2.127 49.627-14.33 71.952-36.256 23.683-23.242 123.39-145.327 131.382-184.115 8.591-41.537-9.923-73.974-23.444-97.667l-0.035-0.062c-13.324-23.344-17.95-33.319-13.374-45.927 33.69-82.942 85.679-150.644 154.010-199.811 16.942-12.257 20.864-35.901 8.75-53.018-7.342-10.332-18.908-15.898-30.674-15.898-7.593 0-15.283 2.278-21.919 7.086-80.097 57.677-140.839 136.468-180.561 234.347-17.447 48.358 3.269 84.614 18.403 111.097 11.364 19.85 17.649 31.698 14.984 44.358-7.039 18.28-80.6 116.161-110.215 145.226-9.151 9.064-17.75 14.381-24.135 14.887-33.889 1.57-109.612-70.892-126.305-98.741zM671.002 336.031c28.155 17.823 66.77 42.076 115.794 31.898 38.467-7.997 159.642-108.411 182.769-132.311 21.775-22.38 33.889-46.285 35.953-71.096 3.267-93.22-120.822-190.746-135.004-198.948-27.1-19.651-58.829-29.573-94.479-29.573-35.497 0-74.916 9.825-117.606 29.773-164.214 68.767-412.552 291.415-552.131 495.734-11.816 17.219-7.492 40.863 9.654 52.813 17.146 11.75 40.677 7.547 52.443-9.82 130.378-190.751 368.711-405.652 520.406-469.202 61.394-28.657 107.1-30.433 141.036-5.924 26.45 16.205 101.77 91.5 100.413 130.693-0.456 4.608-5.683 13.266-14.582 22.482-28.964 29.875-126.106 103.905-146.417 111.606-16.189 3.292-32.686-6.333-58.076-22.385l-13.071-8.202c-17.853-10.783-41.083-4.91-51.738 12.964-10.762 18.028-4.982 41.37 12.872 52.157l11.766 7.342zM771.154 558.162c3.517-18.13 19.308-30.684 36.956-30.684 2.412 0 4.879 0.2 7.291 0.655 20.465 4.004 33.787 24.003 29.814 44.561-20.413 105.324-101.161 186.647-205.747 207.154-20.163 3.494-40.223-9.469-44.247-30.027-3.973-20.558 9.405-40.56 29.819-44.56 74.26-14.533 131.635-72.258 146.115-147.099z" />
<glyph unicode="&#xe91f;" glyph-name="calander-2" d="M729.151 902.468l0.049-36.904c135.615-10.628 225.199-103.038 225.341-244.752l0.536-414.806c0.189-154.515-96.878-249.573-252.466-249.825l-380.058-0.488c-154.618-0.197-252.901 97.13-253.096 252.086l-0.535 409.934c-0.194 142.649 86.228 234.811 221.841 247.26l-0.048 36.905c-0.049 21.651 15.991 37.938 37.378 37.938 21.387 0.049 37.427-16.189 37.476-37.839l0.049-34.444 288.725 0.393-0.049 34.444c-0.050 21.651 15.99 37.889 37.381 37.938 20.898 0.049 37.426-16.189 37.474-37.84zM143.825 602.508l735.908 0.984v17.222c-2.087 105.793-55.168 161.298-150.44 169.564l0.050-37.888c0-21.159-16.478-37.938-37.376-37.938-21.386-0.050-37.479 16.68-37.479 37.839l-0.045 39.856-288.727-0.393 0.049-39.808c0-21.208-15.992-37.938-37.379-37.938-21.387-0.049-37.476 16.631-37.476 37.839l-0.048 37.889c-94.783-9.496-147.23-65.198-147.085-171.926l0.049-15.303zM671.501 378.865v-0.541c0.488-22.637 18.959-39.808 41.364-39.316 21.873 0.542 39.326 19.289 38.838 41.925-1.019 21.652-18.57 39.316-40.394 39.266-22.355-0.492-39.857-18.697-39.808-41.334zM711.649 157.933c-22.355 0.492-40.389 19.141-40.438 41.772-0.488 22.637 17.447 41.384 39.808 41.925h0.488c22.843 0 41.364-18.649 41.364-41.777 0.049-23.124-18.423-41.871-41.222-41.92zM471.241 378.078c0.975-22.636 19.491-40.3 41.851-39.315 21.873 1.033 39.326 19.732 38.351 42.368-0.536 22.144-18.521 39.365-40.394 39.316-22.355-0.985-39.856-19.732-39.808-42.368zM513.288 160.143c-22.36-0.985-40.832 16.684-41.851 39.316 0 22.636 17.447 41.334 39.808 42.368 21.873 0.050 39.906-17.172 40.394-39.266 1.018-22.686-16.478-41.383-38.351-42.417zM270.981 376.355c0.973-22.632 19.491-40.35 41.851-39.316 21.873 0.985 39.323 19.732 38.302 42.368-0.486 22.144-18.471 39.365-40.393 39.315-22.359-0.985-39.808-19.732-39.76-42.368zM313.026 159.897c-22.359-1.034-40.83 16.684-41.851 39.315-0.049 22.637 17.45 41.384 39.809 42.368 21.873 0.049 39.907-17.172 40.392-39.316 1.021-22.636-16.429-41.383-38.35-42.368z" />
<glyph unicode="&#xe920;" glyph-name="folder" d="M962.33 414.979c20.597 0 37.288 16.706 37.288 37.307v49.752c0 197.277-87.874 293.342-267.92 293.342h-132.89c-21.631-0.102-42.077 9.887-55.296 27.018l-42.872 57.039c-27.692 35.55-70.261 56.29-115.312 56.181h-93.452c-177.472 0-267.494-102.498-267.494-304.923v-365.821c0-187.843 116.6-304.492 304.788-304.492h365.234c187.76 0 304.788 116.648 304.788 304.492-2.055 19.178-18.227 33.723-37.508 33.723s-35.46-14.545-37.515-33.723c0-147.958-81.445-229.871-229.766-229.871h-365.663c-148.322 0-229.77 81.481-229.77 229.871v35.596h600.148c20.597 0 37.293 16.706 37.293 37.313s-16.696 37.307-37.293 37.307h-600.148v257.321c0 161.252 57.443 230.3 192.475 230.3h94.309c21.632-0.32 41.96-10.409 55.301-27.448l42.867-56.61c27.209-36.071 69.715-57.334 114.883-57.468h132.462c139.317 0 193.333-62.186 193.333-219.149v-49.752c0-9.966 3.986-19.524 11.074-26.531 7.088-7.012 16.684-10.893 26.653-10.776z" />
<glyph unicode="&#xe921;" glyph-name="notification" horiz-adv-x="922" d="M861.476 483.364c20.787-31.288 32.712-67.543 34.524-104.965l-1.362-9.462c1.567-51.215-15.529-101.279-48.148-141.010-41.661-44.954-98.616-73.032-159.898-78.838-150.953-16.568-303.293-16.568-454.247 0-60.388 6.2-116.348 34.273-157.17 78.838-33.16 39.163-50.766 88.986-49.513 140.109v6.308c2.498 38.543 15.359 75.725 37.248 107.668l3.634 4.506c22.765 25.62 38.418 56.668 45.425 90.102v92.804c6.441 16.275 23.076 26.255 40.601 24.359s31.599-15.198 34.35-32.468v-92.804c0.177-1.647 0.177-3.309 0-4.956-9.458-46.476-31.077-89.668-62.686-125.242-12.173-19.231-19.063-41.283-19.987-63.969v-9.912c-1.009-31.908 9.638-63.104 29.98-87.849 28.203-28.892 65.917-46.792 106.294-50.458 146.141-15.77 293.572-15.77 439.712 0 41.482 3.779 80.118 22.533 108.564 52.71 19.343 24.156 29.476 54.308 28.616 85.146v10.363c-0.932 22.764-7.649 44.923-19.533 64.42-32.922 35.169-55.813 78.397-66.319 125.242-0.174 1.647-0.174 3.308 0 4.956v93.255c-13.174 136.053-149.898 220.297-268.913 220.297-50.596 0.116-100.362-12.767-144.451-37.392-12.208-7.278-27.441-7.39-39.756-0.292s-19.758 20.28-19.425 34.403c0.333 14.122 8.389 26.946 21.025 33.465 54.63 30.608 116.232 46.889 178.972 47.303 157.169 0 333.42-110.824 353.403-288.774v-92.805c6.825-33.495 22.502-64.588 45.43-90.101 1.357-1.541 2.57-3.2 3.63-4.956zM473.677 16.343c26.696 3.978 50.688 18.355 66.647 39.941h0.456c13.798 16.548 38.508 18.867 55.188 5.181 16.686-13.686 19.026-38.19 5.228-54.738-34.017-44.114-86.641-70.211-142.633-70.728-55.834 0.655-108.264 26.737-142.182 70.728-13.798 16.548-11.459 41.052 5.224 54.738s41.393 11.366 55.192-5.181c6.057-8.033 13.251-15.165 21.35-21.171 21.647-15.99 48.84-22.743 75.53-18.77z" />
<glyph unicode="&#xe922;" glyph-name="plus" d="M1012.5 480.799c-7.363-7.276-17.326-11.305-27.679-11.182v0.901c-21.637 0-39.173 17.536-39.173 39.173v130.14c0 156.257-85.56 241.816-241.367 241.816h-384.113c-155.807 0-241.816-86.009-241.816-241.816v-384.113c0-155.356 86.009-241.367 241.816-241.367h384.113c155.807 0 241.367 86.011 241.367 241.367 0 21.637 17.536 39.178 39.173 39.178s39.178-17.541 39.178-39.178c0-197.233-122.486-319.718-319.718-319.718h-384.113c-197.685 0-320.169 122.486-320.169 319.718v384.113c0 197.685 122.484 320.169 320.169 320.169h384.113c196.332 0 319.718-122.484 319.718-320.169v-131.492c0-10.348-4.142-20.265-11.5-27.54zM513.802 660.546c4.214 0.001 8.356-0.685 12.278-1.995 16.317-4.731 28.247-19.789 28.247-37.632v-122.486h133.294c4.618 0.056 9.165-0.717 13.435-2.237 5.96-1.874 11.433-5.187 15.908-9.713 7.276-7.357 11.305-17.326 11.182-27.674 0.005-21.289-16.988-38.687-38.272-39.178h-348.991c-3.332 0.077-6.56 0.563-9.637 1.408-17.566 3.953-30.683 19.543-30.89 38.221-0.12 10.348 3.907 20.316 11.183 27.674 7.276 7.363 17.194 11.505 27.544 11.5h135.092v122.936c0.486 21.608 18.017 38.94 39.629 39.177zM475.075 276.434v49.531c0.353 10.394 4.823 20.219 12.421 27.315 7.603 7.096 17.715 10.875 28.109 10.511 10.429-0.23 20.332-4.664 27.453-12.293 7.117-7.629 10.86-17.807 10.368-28.232v-49.536c-0.348-10.394-4.818-20.219-12.421-27.315-7.603-7.091-17.71-10.875-28.104-10.511-21.535 0.973-38.339 18.98-37.827 40.53z" />
<glyph unicode="&#xe923;" glyph-name="play" horiz-adv-x="910" d="M851.31 546.627c76.065-43.752 76.065-153.502 0-197.254l-668.735-384.651c-75.852-43.629-170.507 11.121-170.507 98.625v769.305c0 87.504 94.655 142.256 170.507 98.626l668.735-384.651z" />
<glyph unicode="&#xe924;" glyph-name="more-circle" d="M24.357 448.025c0 268.921 218.746 487.618 487.62 487.618s487.622-218.697 487.622-487.618c0-268.876-218.748-487.617-487.622-487.617-152.528 0-293.402 69.383-386.537 190.267-11.947 15.557-9.070 37.837 6.437 49.737 15.506 11.995 37.742 9.019 49.737-6.437 79.579-103.373 200.021-162.67 330.363-162.67 229.764 0 416.674 186.902 416.674 416.72 0 229.765-186.909 416.718-416.674 416.718-229.767 0-416.72-186.953-416.72-416.718 0-21.358 1.609-42.569 4.778-63.342 2.926-19.31-10.386-37.4-29.696-40.375-19.456-3.218-37.449 10.289-40.424 29.647-3.706 24.283-5.559 49.201-5.559 74.070zM293.533 506.344c32.232 0 58.417-26.185 58.417-58.319 0-32.183-26.185-58.368-58.417-58.368-32.183 0-58.417 26.185-58.417 58.368 0 32.134 26.234 58.319 58.417 58.319zM511.963 506.344c32.183 0 58.416-26.185 58.416-58.319 0-32.183-26.233-58.368-58.416-58.368-32.232 0-58.417 26.185-58.417 58.368 0 32.134 26.185 58.319 58.417 58.319zM788.787 448.025c0 32.134-26.185 58.319-58.42 58.319-32.183 0-58.417-26.185-58.417-58.319 0-32.183 26.234-58.368 58.417-58.368 32.235 0 58.42 26.185 58.42 58.368z" />
<glyph unicode="&#xe925;" glyph-name="star-2" horiz-adv-x="1113" d="M471.837 877.452c26.655 82.037 142.714 82.037 169.37 0l60.256-185.44c11.918-36.688 46.107-61.528 84.685-61.528h194.983c86.256 0 122.123-110.38 52.335-161.083l-157.745-114.608c-31.205-22.67-44.264-62.865-32.345-99.551l60.251-185.442c26.655-82.036-67.237-150.252-137.020-99.551l-157.745 114.608c-31.21 22.67-73.47 22.67-104.68 0l-157.743-114.608c-69.785-50.701-163.679 17.515-137.024 99.551l60.253 185.442c11.92 36.686-1.138 76.88-32.347 99.551l-157.745 114.608c-69.784 50.704-33.92 161.083 52.338 161.083h194.983c38.576 0 72.765 24.84 84.686 61.528l60.253 185.44z" />
<glyph unicode="&#xe926;" glyph-name="filter" d="M344.569 149.862c0-22.656 17.715-41.098 39.525-41.098s39.524 18.442 39.524 41.098v203.96c0 10.45-3.789 20.475-10.701 28.15l-325.777 362.233c-5.171 5.757-8.090 13.381-8.090 21.271v81.030c0 17.112 13.465 31.132 29.951 31.132h158.154c21.811 0 39.525 18.445 39.525 41.155s-17.715 41.208-39.525 41.208h-158.154c-60.108 0-109.003-50.91-109.003-113.495v-81.030c0-28.947 10.445-56.454 29.439-77.618l315.13-350.291v-187.704zM352.73-40.479c6.707-14.817 20.991-23.521 35.891-23.521 5.581 0 11.263 1.213 16.639 3.799l221.233 106.004c13.87 6.646 22.83 20.992 22.83 36.864v260.588l341.96 345.917c20.787 20.938 32.717 50.156 32.717 80.112v78.424c0 61.916-48.947 112.282-109.056 112.282h-455.619c-21.811 0-39.526-18.3-39.526-40.715 0-22.52 17.715-40.767 39.526-40.767h455.619c16.538 0 29.952-13.871 29.952-30.8v-78.424c0-8.175-3.226-16.191-8.96-21.94l-353.833-357.994c-7.578-7.649-11.878-18.145-11.878-29.061v-251.622l-198.295-94.981c-19.814-9.492-28.364-33.7-19.2-54.164z" />
<glyph unicode="&#xe927;" glyph-name="angle-down-circle" horiz-adv-x="975" d="M418.812 930.179c24.283 3.706 49.203 5.559 74.072 5.559 268.873 0 487.619-218.746 487.619-487.619s-218.746-487.619-487.619-487.619c-268.876 0-487.621 218.746-487.621 487.619 0 152.527 69.388 293.4 190.269 386.536 15.506 11.947 37.839 9.021 49.737-6.437 11.995-15.506 9.021-37.742-6.437-49.786-103.424-79.531-162.67-199.973-162.67-330.313 0-229.766 186.904-416.719 416.722-416.719 229.766 0 416.67 186.953 416.67 416.719s-186.904 416.719-416.67 416.719c-21.309 0-42.62-1.609-63.344-4.779-19.31-2.926-37.4 10.338-40.375 29.696-3.218 19.456 10.289 37.449 29.647 40.424zM492.844 311.869c-9.704 0-19.017 3.852-25.893 10.776l-169.255 169.984c-14.287 14.336-14.238 37.498 0.098 51.736s37.449 14.238 51.688-0.098l143.362-143.993 143.36 143.993c14.238 14.336 37.4 14.336 51.736 0.098 14.287-14.238 14.336-37.4 0.098-51.736l-169.301-169.984c-6.827-6.924-16.14-10.776-25.893-10.776z" />
<glyph unicode="&#xe928;" glyph-name="video-fill" d="M299.323 960c-165.825 0-299.323-133.498-299.323-299.323v-425.354c0-165.825 133.498-299.323 299.323-299.323h425.354c165.825 0 299.323 133.498 299.323 299.323v425.354c0 165.825-133.498 299.323-299.323 299.323h-425.354zM448.246 582.954c2.031 0.036 4.073-0.070 6.123-0.308s4.108-0.614 6.154-1.138c2.046-0.524 4.073-1.176 6.092-2s4.031-1.817 6-2.954l165.415-95.508c1.969-1.137 3.815-2.386 5.538-3.723s3.323-2.767 4.8-4.277c1.477-1.51 2.831-3.082 4.062-4.738s2.338-3.393 3.323-5.169c0.985-1.776 1.846-3.607 2.585-5.477s1.354-3.756 1.846-5.692c0.492-1.936 0.862-3.901 1.108-5.877s0.369-3.98 0.369-5.969c0-1.99-0.123-3.993-0.369-5.969s-0.615-3.941-1.108-5.877c-0.492-1.936-1.108-3.823-1.846-5.692s-1.6-3.7-2.585-5.477c-0.985-1.776-2.092-3.513-3.323-5.169s-2.585-3.228-4.062-4.738c-1.477-1.51-3.077-2.94-4.8-4.277s-3.569-2.586-5.538-3.723l-165.415-95.508c-1.969-1.137-3.981-2.13-6-2.954s-4.046-1.476-6.092-2c-2.046-0.524-4.104-0.901-6.154-1.138s-4.092-0.343-6.123-0.308c-2.031 0.036-4.042 0.197-6.031 0.492s-3.954 0.72-5.877 1.262c-1.923 0.542-3.796 1.225-5.631 2s-3.631 1.651-5.354 2.646c-1.723 0.995-3.396 2.091-4.985 3.292s-3.092 2.513-4.523 3.908c-1.431 1.395-2.781 2.887-4.031 4.462s-2.4 3.213-3.446 4.954c-1.046 1.741-1.981 3.583-2.8 5.477s-1.523 3.843-2.092 5.877c-0.569 2.034-0.996 4.147-1.292 6.308s-0.462 4.372-0.462 6.646v191.015c0 2.274 0.165 4.486 0.462 6.646s0.723 4.274 1.292 6.308c0.569 2.034 1.273 3.983 2.092 5.877s1.754 3.736 2.8 5.477c1.046 1.741 2.196 3.379 3.446 4.954s2.6 3.067 4.031 4.462c1.431 1.395 2.935 2.706 4.523 3.908s3.262 2.297 4.985 3.292c1.723 0.995 3.519 1.871 5.354 2.646s3.708 1.458 5.631 2c1.923 0.542 3.888 0.966 5.877 1.262s4 0.457 6.031 0.492z" />
<glyph unicode="&#xe929;" glyph-name="gallery" d="M533.214 607.111c0 76.157 61.741 137.895 137.898 137.895s137.893-61.738 137.893-137.895-61.735-137.898-137.893-137.898c-76.157 0-137.898 61.741-137.898 137.898zM671.111 681.362c-41.009 0-74.251-33.243-74.251-74.251s33.242-74.251 74.251-74.251c41.004 0 74.252 33.242 74.252 74.251 0 41.007-33.248 74.251-74.252 74.251zM969.601 215.839c9.12 21.657 16.505 44.244 21.984 67.598 25.391 108.24 25.391 220.886 0 329.123-36.665 156.311-158.712 278.36-315.022 315.025-108.24 25.389-220.886 25.389-329.123 0-156.311-36.665-278.359-158.714-315.025-315.025-25.389-108.237-25.389-220.883 0-329.123 2.692-11.475 5.844-22.766 9.437-33.852l33.452 33.44c120.986 120.966 317.142 120.966 438.125 0l93.67-93.647 24.555 24.548c94.086 94.064 245.103 92.961 337.948 1.912zM938.658 155.466l-1.357 1.635c-66.505 79.791-187.19 85.264-260.648 11.817l-24.544-24.538 133.704-133.682c61.824 34.461 113.97 83.908 151.648 143.554 0.411 0.399 0.81 0.804 1.197 1.214zM723.994-17.491l-255.563 255.512c-96.131 96.114-251.996 96.114-348.128 0l-51.972-51.961c55.945-108.368 157.087-189.024 279.11-217.646 108.237-25.391 220.883-25.391 329.123 0 16.194 3.801 32.030 8.516 47.431 14.095z" />
<glyph unicode="&#xe92a;" glyph-name="heart" horiz-adv-x="1109" d="M836.478 943.686c86.999-27.055 159.336-89.198 200.211-171.984 47.778-100.339 54.289-215.955 18.065-321.201-33.34-96.887-87.987-184.713-159.787-256.765-47.069-48.381-97.789-92.923-151.695-133.226l-2.851-2.423c-17.91-12.058-41.995-7.322-54.213 10.658-6.214 8.678-8.709 19.558-6.915 30.148 1.789 10.59 7.718 19.988 16.422 26.052 50.586 38.108 98.277 80.055 142.665 125.472 63.934 62.917 112.753 140.008 142.663 225.28 28.774 84.967 22.955 178.135-16.162 258.701-31.488 63.38-86.938 110.961-153.604 131.774-85.030 27.086-177.664 10.666-248.713-44.086-14.12-10.66-33.425-10.66-47.551 0-71.017 54.828-163.689 71.255-248.711 44.086-67.109-20.355-123.123-67.791-155.028-131.29-38.232-80.507-43.702-173.14-15.217-257.736 30.038-85.067 78.846-161.969 142.663-224.789 94.295-92.111 198.275-173.347 310.057-242.228 14.212-10.052 20.464-28.279 15.485-45.158s-20.065-28.578-37.36-28.971c-7.799-0.043-15.425 2.321-21.876 6.784-116.442 71.748-224.732 156.39-322.895 252.407-72.189 71.814-127.046 159.7-160.258 256.765-34.968 105.097-27.79 220.011 19.973 319.746 40.867 82.786 113.207 144.93 200.204 171.984 100.024 31.474 208.549 16.969 297.216-39.726 88.667 56.696 197.19 71.2 297.213 39.726zM797.485 572.587c-1.988 44.771-31.253 83.494-73.232 96.893-15.607 9.928-22.544 29.432-16.794 47.239s22.7 29.307 41.046 27.854c70.904-22.804 121.374-86.838 127.919-162.295 1.34-10.551-1.527-21.208-7.962-29.585-6.443-8.381-15.903-13.776-26.278-14.983-21.779-2.867-41.747 12.708-44.7 34.878z" />
<glyph unicode="&#xe92b;" glyph-name="comments" d="M320.206 960h383.641c197.683 0 320.154-122.522 320.154-320.307v-384c0-197.222-122.47-319.693-320.154-319.693h-384.153c-197.223 0-319.694 122.47-319.642 319.846 0 21.606 17.562 39.168 39.168 39.168 21.658 0 39.168-17.562 39.168-39.168 0-155.341 85.555-241.357 241.818-241.357h383.641c155.802 0 241.818 85.555 241.818 241.357v384c0 155.802-85.504 241.818-241.818 241.818h-383.692c-155.802 0-241.818-86.016-241.818-241.818v-119.346c0-21.402-17.306-38.707-38.707-38.707h-0.563c-21.606 0-39.117 17.562-39.066 39.168v118.886c0 197.632 123.392 320.154 320.206 320.154zM282.66 509.236c33.844 0 61.338-27.494 61.338-61.235 0-33.792-27.494-61.287-61.338-61.287-33.792 0-61.338 27.495-61.338 61.287 0 33.741 27.546 61.235 61.338 61.235zM512.010 509.236c33.843 0 61.338-27.494 61.338-61.235 0-33.792-27.494-61.287-61.338-61.287-33.792 0-61.338 27.495-61.338 61.287 0 33.741 27.546 61.235 61.338 61.235zM802.673 448.001c0 33.741-27.494 61.235-61.338 61.235-33.792 0-61.338-27.494-61.338-61.235 0-33.792 27.546-61.287 61.338-61.287 33.843 0 61.338 27.495 61.338 61.287z" />
<glyph unicode="&#xe92c;" glyph-name="user-2" horiz-adv-x="819" d="M680.653 689.098c0-150.377-120.571-270.953-271.053-270.953-150.431 0-271.052 120.576-271.052 270.953s120.622 270.902 271.052 270.902c150.482 0 271.053-120.526 271.053-270.902zM409.6-64c-222.087 0-409.6 36.096-409.6 175.36 0 139.32 188.691 174.136 409.6 174.136 222.136 0 409.6-36.096 409.6-175.365 0-139.315-188.692-174.131-409.6-174.131z" />
<glyph unicode="&#xe92d;" glyph-name="location-2" horiz-adv-x="922" d="M25.6 534.129c0 235.515 196.807 425.871 434.862 425.871 238.73 0 435.538-190.356 435.538-425.871 0-118.676-43.162-228.854-114.202-322.243-78.372-103.009-174.966-192.763-283.699-263.209-24.883-16.282-47.34-17.51-74.655 0-109.346 70.446-205.942 160.2-283.643 263.209-71.092 93.389-114.202 203.566-114.202 322.243zM317.145 520.868c0-78.894 64.382-140.948 143.318-140.948 78.991 0 143.995 62.054 143.995 140.948 0 78.285-65.004 143.358-143.995 143.358-78.935 0-143.318-65.074-143.318-143.358z" />
<glyph unicode="&#xe92e;" glyph-name="phone-4" d="M827.74 326.139c-34.391 7.398-61.599-8.571-85.688-22.518-24.673-14.367-71.583-52.424-98.473-42.685-137.67 56.684-267.15 177.183-323.201 315.404-9.879 27.464 27.999 74.673 42.263 99.635 13.841 24.164 29.478 51.628 22.346 86.276-6.445 31.136-89.808 137.211-119.286 166.218-19.441 19.161-39.357 29.699-59.802 31.402-76.866 3.3-162.711-99.263-177.767-123.799-37.72-52.319-37.508-121.936 0.634-206.349 91.921-226.734 439.583-568.908 667.165-664.284 41.999-19.64 80.404-29.486 114.903-29.486 33.756 0 63.816 9.421 89.651 28.099 19.492 11.233 126.259 101.34 123.459 180.27-1.69 20.122-12.201 40.238-31.114 59.72-28.795 29.752-134.185 115.599-165.089 122.097z" />
<glyph unicode="&#xe92f;" glyph-name="search-2" d="M1011.482 7.347l-175.99 172.068-4.127 6.272c-7.67 7.634-18.156 11.935-29.102 11.935s-21.437-4.301-29.107-11.935c-149.565-137.216-380.035-144.676-538.557-17.428s-195.909 349.711-87.364 519.861c108.545 170.148 329.34 235.178 515.949 151.963 186.614-83.215 281.139-288.852 220.887-480.536-4.337-13.85-0.794-28.908 9.303-39.506s25.211-15.124 39.644-11.873c14.438 3.251 26.004 13.783 30.341 27.633 72.028 227.469-36.756 472.261-255.974 576.017s-483.085 35.34-620.905-160.991c-137.819-196.331-108.23-461.654 69.626-624.337s450.605-173.896 641.801-26.388l155.832-152.351c16.092-15.667 42.112-15.667 58.204 0 16.077 15.887 16.077 41.467 0 57.354l-0.461 2.243z" />
<glyph unicode="&#xe930;" glyph-name="arrow-right" d="M445.724 448.375l0.091 20.144c0.688 79.9 5.507 151.186 13.813 196.362 0 0.815 9.062 45.62 14.831 60.534 9.062 21.556 25.446 39.854 45.989 51.447 16.447 8.272 33.695 12.47 51.758 12.47 14.194-0.658 37.609-7.802 54.316-13.791l13.886-5.321c91.973-36.533 267.789-155.91 335.123-228.912l4.964-5.103 22.156-23.91c13.963-18.301 21.349-40.67 21.349-64.734 0-21.555-6.578-43.116-19.735-60.535-3.939-5.643-10.283-12.885-15.931-19.001l-21.565-22.574c-74.209-75.19-234.886-180.656-318.17-215.598 0-0.757-51.756-22.374-76.394-23.188h-3.288c-37.797 0-73.108 21.555-91.17 56.4-4.932 9.523-9.665 28.183-13.261 44.567l-6.474 30.942c-7.384 49.755-12.288 126.083-12.288 209.801zM85.521 361.626c-47.229 0-85.521 38.662-85.521 86.352 0 47.684 38.292 86.352 85.521 86.352l210.443-18.614c37.046 0 67.083-30.265 67.083-67.738 0-37.416-30.037-67.743-67.083-67.743l-210.443-18.608z" />
<glyph unicode="&#xe931;" glyph-name="phone-5" d="M107.437 774.159c-25.637-35.225-23.844-80.35 3.684-140.799 8.512-18.757 0.249-40.847-18.518-49.404-18.816-8.508-40.868-0.298-49.431 18.508-39.176 85.922-38.43 157.665 2.19 213.039 15.133 25.324 110.261 135.426 191.948 130.102 25.686-2.139 49.182-14.080 71.234-35.573 23.496-22.936 122.155-142.938 130.069-180.899 8.508-40.811-9.822-72.682-23.21-95.961l-0.035-0.061c-13.19-22.936-17.769-32.737-13.239-45.126 33.302-81.443 84.775-148.011 152.521-196.369 16.777-12.041 20.608-35.328 8.614-52.092-7.27-10.15-18.718-15.62-30.366-15.62-7.565 0-15.134 2.283-21.705 6.963-79.347 56.768-139.48 134.229-178.756 230.302-17.273 47.514 3.236 83.136 18.22 109.156 11.25 19.503 17.472 31.145 14.834 43.584-6.969 17.96-79.746 114.032-109.116 142.64-9.059 8.906-17.572 14.129-23.894 14.627-35.642 0.846-108.518-69.604-125.045-97.017zM793.237 374.673c38.127-7.91 158.050-106.522 180.996-129.95 21.602-22.093 33.549-45.628 35.593-69.854 3.234-91.695-119.569-187.52-133.653-195.58-26.782-19.302-58.197-29.052-93.538-29.052-35.145 0-74.172 9.651-116.433 29.35-162.526 67.465-408.338 286.229-546.624 486.976-11.697 16.964-7.417 40.201 9.558 51.891 17.025 11.541 40.271 7.364 51.919-9.604 129.177-187.511 365.13-398.609 515.265-461.001 60.727-28.211 105.924-29.952 139.58-5.82 26.236 15.868 100.753 89.899 99.409 128.405-0.448 4.531-5.628 13.039-14.438 22.042-28.672 29.355-124.898 102.144-145.007 109.709-15.881 3.379-32.405-6.272-57.591-22.144l-12.745-7.91c-17.673-10.594-40.619-4.975-51.273 12.74-10.603 17.613-4.928 40.542 12.745 51.191l11.499 7.117c27.874 17.562 66.355 41.54 114.739 31.492z" />
<glyph unicode="&#xe932;" glyph-name="filter-fill" d="M108.963 960h806.072c60.2 0 108.965-50.23 108.965-112.243v-78.413c0-30.084-11.754-58.973-32.629-80.042l-333.056-336.892c-5.749-5.866-13.55-9.125-21.617-9.066l-278.864 0.863c-8.487 0-16.553 3.643-22.351 9.995l-306.066 336.621c-18.925 20.798-29.415 48.275-29.415 76.784v80.096c0 62.014 48.762 112.298 108.963 112.298zM372.74 252.208l248.558-0.764c15.499-0.055 28.043-13.030 28.043-28.943v-139.827c0-15.963-9.070-30.413-23.194-37.091l-225.624-105.944c-5.274-2.447-10.858-3.639-16.446-3.639-7.435 0-14.866 2.172-21.351 6.462-11.334 7.493-18.187 20.418-18.187 34.264v246.535c0 16.018 12.652 28.997 28.201 28.946z" />
<glyph unicode="&#xe933;" glyph-name="star-squre" horiz-adv-x="1142" d="M1014.292 447.945c0-46.281 38.148-83.936 85.031-83.936 23.643 0 42.831-18.936 42.831-42.272v-152.253c0-128.752-106.106-233.484-236.54-233.484h-669.017c-130.434 0-236.597 104.732-236.597 233.484v152.253c0 23.335 19.188 42.272 42.831 42.272 46.943 0 85.090 37.656 85.090 83.936 0 45.095-36.606 79.029-85.090 79.029-11.364 0-22.215 4.454-30.267 12.402s-12.564 18.716-12.564 29.873l0.114 157.214c0 128.747 106.106 233.537 236.54 233.537h668.845c130.434 0 236.599-104.79 236.599-233.537l0.055-152.309c0-11.163-4.51-21.986-12.505-29.874-8.054-7.948-18.905-12.402-30.326-12.402-46.883 0-85.031-37.656-85.031-83.933zM699.683 411.136l67.332 64.713c11.705 11.162 15.762 27.616 10.677 42.835-5.025 15.226-18.16 26.045-34.036 28.247l-93.030 13.414-41.63 83.2c-7.14 14.318-21.646 23.224-37.805 23.281h-0.114c-16.104 0-30.61-8.906-37.86-23.224l-41.633-83.256-92.857-13.359c-16.047-2.257-29.182-13.076-34.265-28.302-5.025-15.218-0.971-31.673 10.679-42.835l67.33-64.713-15.876-91.49c-2.741-15.777 3.714-31.453 16.849-40.865 7.424-5.242 16.045-7.948 24.785-7.948 6.68 0 13.418 1.638 19.586 4.844l83.263 43.181 83.094-43.067c14.391-7.605 31.464-6.424 44.54 3.044 13.194 9.358 19.649 25.033 16.908 40.81l-15.935 91.49z" />
<glyph unicode="&#xe934;" glyph-name="heart-fill" d="M702.53 929.874c32.003 0 63.964-4.514 94.347-14.71 187.223-60.869 254.687-266.301 198.331-445.864-31.955-91.76-84.203-175.503-152.63-243.93-97.949-94.859-205.432-179.055-321.133-251.591l-12.681-7.662-13.188 8.168c-116.108 72.029-224.201 156.226-323.062 251.591-67.97 68.427-120.267 151.664-152.73 243.424-57.318 179.563 10.145 384.995 199.396 446.929 14.71 5.072 29.877 8.623 45.094 10.601h6.087c14.253 2.080 28.405 3.043 42.608 3.043h5.58c31.957-0.964 62.898-6.543 92.876-16.739h2.992c2.029-0.964 3.551-2.029 4.565-2.993 11.21-3.601 21.811-7.659 31.956-13.239l19.275-8.623c4.656-2.484 9.886-6.28 14.405-9.56 2.861-2.078 5.438-3.95 7.406-5.15 0.827-0.489 1.669-0.979 2.516-1.475 4.352-2.539 8.882-5.184 12.701-8.112 56.354 43.065 124.783 66.398 195.289 65.891zM837.457 564.661c20.793 0.558 38.551 17.247 40.069 38.601v6.036c1.524 71.064-41.544 135.434-107.026 160.288-20.799 7.152-43.622-4.057-51.23-25.362-7.102-21.304 4.054-44.637 25.359-52.195 32.515-12.174 54.278-44.18 54.278-79.636v-1.573c-0.964-11.616 2.536-22.826 9.638-31.449s17.751-13.644 28.913-14.71z" />
<glyph unicode="&#xe935;" glyph-name="bookmark" horiz-adv-x="819" d="M599.813 914.1h-334.728c-138.075 0-224.685-96.385-224.685-251.030v-638.284c0-44.954 35.593-81.393 79.498-81.393 13.292 0.010 26.375 3.395 38.075 9.851l272.385 151.219 317.153-152.074c8.596-3.697 18.278-3.743 26.916-0.128 8.632 3.615 15.503 10.593 19.108 19.405 5.32 16.23-1.126 34.063-15.478 42.839l-315.063 150.789c-20.584 11.581-45.527 11.581-66.11 0l-272.801-150.789c-3.128-1.756-6.914-1.756-10.042 0-2.975 1.961-4.723 5.376-4.603 8.996v639.569c0.419 114.377 56.485 179.491 156.903 179.491h334.727c128.87 0 147.697-107.095 147.697-171.352v-29.13h-362.341c-9.212-0.335-17.914-4.405-24.195-11.316s-9.615-16.093-9.275-25.525c0.437-18.737 15.172-33.819 33.47-34.27h361.087v-374.832c0-19.64 15.549-35.558 34.729-35.558 19.016 0 34.499 15.662 34.724 35.133v475.497c0 149.933-82.842 242.891-217.149 242.891z" />
<glyph unicode="&#xe936;" glyph-name="angle-left-2" d="M696.365 935.41c178.822 89.52 377.28-80.175 316.422-270.568l-69.587-217.725 69.21-215.725c61.050-190.278-137.126-360.186-316.038-270.957l-571.322 284.922c-166.592 83.078-166.771 320.563-0.307 403.896l571.622 286.158z" />
<glyph unicode="&#xe937;" glyph-name="angle-right-2" d="M327.637 935.41c-178.822 89.52-377.279-80.175-316.428-270.568l69.588-217.725-69.21-215.725c-61.048-190.278 137.126-360.186 316.044-270.957l571.319 284.922c166.592 83.078 166.771 320.563 0.307 403.896l-571.62 286.158z" />
<glyph unicode="&#xe938;" glyph-name="angle-left-circle" horiz-adv-x="975" d="M969.679 516.688c3.706-24.283 5.559-49.203 5.559-74.072 0-268.873-218.746-487.619-487.619-487.619s-487.619 218.746-487.619 487.619c0 268.876 218.746 487.621 487.619 487.621 152.527 0 293.4-69.388 386.536-190.269 11.947-15.506 9.021-37.839-6.437-49.737-15.506-11.995-37.742-9.021-49.786 6.437-79.531 103.424-199.973 162.67-330.313 162.67-229.766 0-416.719-186.904-416.719-416.722 0-229.766 186.953-416.67 416.719-416.67s416.719 186.904 416.719 416.67c0 21.309-1.609 42.62-4.779 63.344-2.926 19.31 10.338 37.4 29.696 40.375 19.456 3.218 37.449-10.289 40.424-29.647zM351.369 442.656c0 9.704 3.852 19.017 10.776 25.893l169.984 169.255c14.336 14.287 37.498 14.238 51.736-0.098s14.238-37.449-0.098-51.688l-143.993-143.362 143.993-143.36c14.336-14.238 14.336-37.4 0.098-51.736-14.238-14.287-37.4-14.336-51.736-0.098l-169.984 169.301c-6.924 6.827-10.776 16.14-10.776 25.893z" />
<glyph unicode="&#xe939;" glyph-name="angle-down" d="M70.729 690.114c18.291 18.466 47.944 18.591 66.235-0.125l271.055-276.793 4.175-4.886c13.915-18.711 12.465-45.455-4.363-62.436-9.114-9.205-21.099-13.898-33.022-13.898-11.986 0-24.034 4.693-33.149 14.024l-271.118 276.787-4.176 4.892c-13.915 18.711-12.46 45.449 4.363 62.436zM891.947 694.278c18.364 14.285 44.681 12.766 61.44-4.159 18.295-18.528 18.355-48.668 0.068-67.328l-408.272-416.767-4.785-4.278c-8.329-6.485-18.324-9.746-28.365-9.746-11.924 0-23.91 4.696-33.024 13.897-18.353 18.529-18.415 48.67-0.125 67.325l408.267 416.772 4.796 4.284z" />
<glyph unicode="&#xe93a;" glyph-name="download-2" d="M24.571 249.039v398.385c0 172.13 110.738 288.183 275.992 288.183h422.767c165.304 0 276.481-116.053 276.481-288.183v-398.385c0-172.619-111.177-288.668-276.481-288.668h-422.767c-165.254 0-275.992 116.048-275.992 288.668zM548.763 337.298v309.639c0 20.48-16.579 36.571-36.571 36.571-20.48 0-36.571-16.091-36.571-36.571v-309.639l-120.443 120.929c-6.827 6.826-16.579 10.728-25.844 10.728-9.216 0-18.529-3.901-25.844-10.728-14.141-14.141-14.141-37.546 0-51.688l182.858-183.834c13.654-13.648 38.034-13.648 51.688 0l182.857 183.834c14.142 14.141 14.142 37.547 0 51.688-14.629 14.141-37.546 14.141-52.175 0l-119.954-120.929z" />
<glyph unicode="&#xe93b;" glyph-name="database-download" horiz-adv-x="819" d="M443.231 422.723h223.969c4.127 0.073 8.058 1.773 10.938 4.73s4.474 6.932 4.436 11.059v263.168c-0.072 4.042-1.719 7.896-4.59 10.743-2.872 2.845-6.742 4.458-10.784 4.494h-204.579l-40.029-53.188c-4.584-6.83-11.476-11.78-19.412-13.942-7.937-2.162-16.388-1.393-23.803 2.168-5.658 2.502-10.469 6.592-13.851 11.773l-40.166 53.188h-175.77c-4.090 0.037-8.031-1.544-10.962-4.397-2.931-2.854-4.616-6.749-4.689-10.84v-263.168c-0.019-2.067 0.372-4.116 1.151-6.031s1.928-3.657 3.383-5.125c1.455-1.468 3.187-2.633 5.096-3.429 1.908-0.795 3.954-1.203 6.021-1.203h223.416v-31.442h-223.416c-2.035 0.055-4.061-0.298-5.958-1.038-1.896-0.741-3.625-1.855-5.084-3.276s-2.619-3.118-3.411-4.995c-0.791-1.876-1.198-3.891-1.197-5.928v-263.168c-0.019-2.061 0.374-4.105 1.153-6.012s1.933-3.639 3.389-5.097c1.457-1.457 3.19-2.61 5.097-3.389s3.951-1.171 6.011-1.153h223.416v-46.678c-6.625-4.48-12.394-10.108-17.037-16.621h-320.649c-4.643 0.018-9.245-0.883-13.538-2.651-4.294-1.769-8.195-4.37-11.478-7.654s-5.884-7.183-7.653-11.478c-1.769-4.293-2.669-8.893-2.651-13.537v0c0.018-4.613 0.947-9.179 2.733-13.432s4.395-8.113 7.677-11.355c3.282-3.244 7.171-5.806 11.446-7.543s8.85-2.61 13.464-2.574h320.373c5.748-8.497 13.485-15.46 22.537-20.288s19.145-7.373 29.404-7.414c10.248-0.009 20.34 2.516 29.377 7.348s16.741 11.825 22.424 20.353h321.481c9.233 0.037 18.076 3.731 24.591 10.272s10.173 15.4 10.173 24.632v0c0.037 4.603-0.833 9.166-2.56 13.432s-4.278 8.148-7.507 11.429c-3.228 3.279-7.071 5.891-11.309 7.685s-8.787 2.738-13.389 2.774h-321.203c-4.364 6.557-9.962 12.204-16.483 16.621v46.678h223.969c2.036 0.018 4.051 0.438 5.926 1.234s3.575 1.955 5.002 3.407c1.428 1.454 2.555 3.174 3.318 5.064s1.146 3.909 1.128 5.947v263.168c0 2.012-0.398 4.004-1.172 5.862s-1.908 3.543-3.338 4.96-3.126 2.536-4.991 3.293c-1.865 0.756-3.86 1.138-5.873 1.12h-223.969v31.442zM192.389 146.673v195.437h22.162v-195.437h-22.162zM580.215 146.673v109.838h22.162v-109.838h-22.162zM531.738 146.673v195.437h22.3v-195.437h-22.3zM289.623 146.673v109.838h22.3v-109.838h-22.3zM241.144 146.673v195.437h22.3v-195.437h-22.3zM325.774 856.395l0.416-0.139h-59.283c-0.538 0.19-1.124 0.19-1.661 0-1.025-0.483-1.828-1.342-2.24-2.398s-0.403-2.231 0.024-3.281l127.706-170.228c0.576-0.742 1.343-1.316 2.216-1.661 0.471-0.311 1.002-0.515 1.559-0.598s1.125-0.045 1.665 0.113c0.54 0.159 1.039 0.433 1.464 0.804 0.424 0.37 0.762 0.828 0.991 1.343l127.844 169.813c0.243 0.671 0.243 1.406 0 2.077 0.040 0.58-0.044 1.163-0.244 1.709s-0.512 1.044-0.916 1.462-0.892 0.746-1.432 0.964c-0.54 0.217-1.119 0.318-1.7 0.297h-59.421v103.328h-136.986v-103.605zM192.805 472.032v195.437h22.161v-195.437h-22.161zM580.631 472.032v109.976h22.162v-109.976h-22.162zM532.154 472.032v195.437h22.299v-195.437h-22.299zM376.33 569.819c-0.027 6.176 1.78 12.22 5.194 17.367s8.28 9.161 13.98 11.538c5.7 2.376 11.977 3.004 18.035 1.806s11.624-4.169 15.991-8.536c4.366-4.366 7.338-9.932 8.536-15.99s0.568-12.337-1.807-18.036c-2.376-5.701-6.391-10.566-11.538-13.98s-11.19-5.221-17.366-5.194c-8.218 0.037-16.088 3.316-21.898 9.128-5.811 5.81-9.092 13.681-9.128 21.898v0zM288.653 472.032v109.976h22.301v-109.976h-22.301zM240.175 472.032v195.437h22.3v-195.437h-22.3zM376.33 244.323c-0.037 4.104 0.737 8.174 2.28 11.978 1.541 3.804 3.818 7.267 6.701 10.189s6.314 5.244 10.098 6.835c3.782 1.592 7.843 2.42 11.948 2.438 6.158 0.027 12.186-1.77 17.324-5.166 5.137-3.396 9.152-8.237 11.54-13.912 2.387-5.677 3.040-11.933 1.875-17.979s-4.093-11.613-8.419-15.996c-4.326-4.383-9.852-7.387-15.884-8.631-6.030-1.245-12.294-0.676-18.002 1.636-5.706 2.313-10.601 6.263-14.065 11.355s-5.341 11.095-5.396 17.253z" />
<glyph unicode="&#xe93c;" glyph-name="could" horiz-adv-x="1088" d="M525.292 960c65.919-0.081 129.115-26.304 175.726-72.915 46.612-46.612 72.835-109.808 72.916-175.727 0.096-20.655-2.324-41.247-7.205-61.317 18.618 4.522 37.713 6.788 56.872 6.744 33.202 0.824 66.234-5.002 97.148-17.139 30.916-12.137 59.090-30.337 82.865-53.528 23.773-23.191 42.668-50.906 55.567-81.51s19.546-63.482 19.546-96.694c0-33.212-6.646-66.088-19.546-96.692s-31.794-58.319-55.567-81.51c-23.775-23.191-51.949-41.391-82.865-53.528-30.915-12.137-63.946-17.964-97.148-17.14h-61.317l-191.617 323.757c-3.767 6.525-9.185 11.945-15.711 15.712-6.525 3.768-13.928 5.751-21.463 5.751s-14.938-1.983-21.463-5.751c-6.525-3.767-11.944-9.187-15.711-15.712l-192.229-324.063h-61.317c-64.936 1.612-126.67 28.539-172.027 75.036s-70.745 108.879-70.745 173.836c0 64.955 25.388 127.338 70.745 173.836s107.092 73.425 172.027 75.036c13.455 0.090 26.893-0.988 40.163-3.219-4.522 18.774-6.787 38.021-6.746 57.331 0.082 65.999 26.367 129.265 73.078 175.89s110.026 72.793 176.024 72.753v0.767zM596.266 77.030v-141.030h-125.548v141.030h-160.344c-1.837-0.12-3.67 0.278-5.29 1.149s-2.963 2.182-3.873 3.781c-0.911 1.599-1.356 3.421-1.28 5.26s0.667 3.62 1.705 5.139l222.583 375.108c1.298 2.321 3.433 4.058 5.969 4.855 2.536 0.799 5.281 0.598 7.674-0.562 1.856-0.932 3.36-2.437 4.293-4.293l223.041-376.182c0.58-1.135 0.928-2.376 1.027-3.648 0.097-1.271-0.058-2.55-0.457-3.762s-1.034-2.331-1.869-3.296-1.851-1.755-2.993-2.324c-1.428-0.525-2.926-0.835-4.445-0.919h-160.192v-0.306z" />
<glyph unicode="&#xe93d;" glyph-name="internet" horiz-adv-x="1011" d="M62.667 519.777c16.796 4.94 33.309 9.316 50.247 13.408-19.851 47.324-30.44 98.016-31.193 149.329h-81.721c2.013-59.745 24.089-117.071 62.667-162.737zM808.18 168.616v121.381h-73.818v-121.381h-94.284c-1.523-0.036-2.975-0.658-4.051-1.736-1.078-1.078-1.699-2.528-1.734-4.051 0.081-1.080 0.369-2.134 0.846-3.105l131.263-220.465c0.302-0.677 0.74-1.288 1.284-1.792s1.185-0.895 1.884-1.144c0.699-0.251 1.441-0.357 2.182-0.314 0.741 0.045 1.466 0.237 2.13 0.568 0.649 0.16 1.242 0.495 1.714 0.968s0.806 1.065 0.968 1.714l131.122 220.888c0.429 0.653 0.701 1.398 0.796 2.173 0.093 0.776 0.008 1.563-0.251 2.3-0.26 0.739-0.686 1.405-1.247 1.951-0.559 0.547-1.236 0.956-1.98 1.197-0.581 0.529-1.334 0.829-2.118 0.847h-94.706zM480.872 187.811v-121.382h-73.677v121.382h-94.282c-0.723-0.038-1.446 0.067-2.129 0.308-0.684 0.243-1.312 0.617-1.85 1.102s-0.974 1.071-1.284 1.725c-0.311 0.654-0.489 1.363-0.525 2.086 0.004 1.091 0.297 2.162 0.847 3.105l131.121 221.028c0.719 1.306 1.893 2.3 3.299 2.794s2.944 0.454 4.323-0.113c1.066-0.703 1.978-1.615 2.682-2.682l131.122-221.452c0.401-0.65 0.65-1.381 0.731-2.14 0.079-0.759-0.013-1.527-0.27-2.246s-0.675-1.37-1.219-1.906-1.202-0.941-1.924-1.188c0 0-1.271 0-2.259 0h-94.706v-0.424zM577.837 765.224c52.106 0 102.079-20.699 138.925-57.545s57.545-86.819 57.545-138.926c-0.056-16.192-2.143-32.314-6.211-47.987 14.843 3.524 30.052 5.277 45.307 5.222 40.767 0.141 80.562-12.43 113.851-35.964 33.288-23.533 58.412-56.859 71.875-95.338s14.596-80.198 3.24-119.351c-11.355-39.154-34.633-73.793-66.595-99.098-3.182 8.207-9.398 14.879-17.361 18.63-4.796 2.464-10.136 3.677-15.526 3.529h-64.502v121.806h-133.802v-121.806h-64.503c-6.282 0.029-12.462-1.6-17.914-4.722s-9.984-7.629-13.138-13.062c1.757 4.663 2.54 9.637 2.296 14.614s-1.504 9.851-3.707 14.321v0.847l-131.544 221.453c-3.611 6.232-9.092 11.171-15.667 14.113-8.166 4.031-17.556 4.814-26.278 2.195s-16.127-8.447-20.722-16.308l-130.698-220.042c-3.365-5.416-5.213-11.638-5.35-18.012-0.136-6.376 1.444-12.671 4.576-18.226 3.131-5.555 7.697-10.166 13.222-13.35s11.804-4.826 18.181-4.75h64.5v-23.995h-22.299c-36.477 0.118-72.204 10.381-103.181 29.641s-55.986 46.76-72.229 79.421-23.078 69.197-19.744 105.522c3.334 36.324 16.708 71.005 38.627 100.163-18.849 14.661-34.912 32.589-47.424 52.929-4.029 5.789-7.616 11.876-10.726 18.207 19.054 3.529 38.249 6.634 57.303 8.468 2.258-11.996 4.941-23.57 8.046-34.298 3.104-10.726 5.362-18.63 8.467-27.099 4.76 4.989 9.802 9.701 15.103 14.113-1.836 5.363-3.529 11.574-5.363 17.784-2.259 9.74-4.941 20.042-7.058 31.192 17.361 1.271 35.145 1.695 52.365 1.695s32.040-0.847 48.553-1.695l-1.836-7.621c6.746 1.49 13.583 2.527 20.466 3.105v2.682c4.517 0 9.316-1.412 14.115-1.836h4.375c10.573-0.059 21.13-0.765 31.616-2.117-1.358 5.535-2.394 11.142-3.105 16.796-14.113 2.258-28.934 4.517-43.612 5.787 7.197 45.001 10.925 90.49 11.149 136.061h66.479c4.731 6.739 9.969 13.108 15.666 19.054h-82.285c-0.145 46.342-4.015 92.598-11.574 138.319 20.893 2.037 41.668 5.146 62.243 9.316 20.352-46.406 31.245-96.404 32.040-147.071 5.718 6.1 11.796 11.852 18.208 17.22-2.611 46.065-13.165 91.332-31.194 133.802 16.937 3.67 33.452 7.622 49.824 12.562 26.572-31.143 45.601-67.996 55.61-107.692 16.772 4.7 34.1 7.122 51.517 7.199l-0.141 0.141zM615.521 133.471h-104.869v23.712h64.361c5.407 0.111 10.735 1.311 15.667 3.529 6.368 3.196 11.739 8.078 15.526 14.113-1.82-4.035-2.735-8.417-2.682-12.844 0.157-6.76 2.158-13.349 5.786-19.054l6.211-9.457zM130.98 537.138c20.838 4.384 41.9 7.634 63.091 9.738-7.15 44.864-10.879 90.208-11.151 135.638h-82.568c0.689-49.987 11.091-99.361 30.628-145.376zM213.266 548.712c18.207 1.27 36.838 1.834 55.469 1.834s34.721-0.987 51.658-2.258c7.16 44.389 10.888 89.263 11.15 134.226h-129.427c0.101-44.829 3.83-89.576 11.15-133.802zM121.523 515.402c-14.114-3.105-29.216-7.199-44.036-11.15l1.411-1.271c28.32-28.667 62.847-50.445 100.918-63.656-17.277 14.889-32.26 32.25-44.461 51.517-4.94 7.622-9.315 16.091-14.114 24.559h0.283zM79.181 882.372c14.114-4.375 28.229-8.045 43.613-11.15 3.742 7.649 7.886 15.092 12.42 22.3 12.013 19.407 27.018 36.794 44.46 51.517-37.789-13.056-72.141-34.478-100.493-62.667zM141.848 867.269c19.195-3.528 38.249-6.21 56.457-8.468 2.258 11.574 4.94 22.3 7.621 32.039 5.253 22.031 13.769 43.153 25.265 62.667-33.832-13.831-61.988-38.704-79.887-70.571-3.713-5.044-7.017-10.378-9.88-15.949l0.425 0.282zM217.924 857.531c17.268-1.525 34.606-2.137 51.94-1.835 16.091 0 32.040 0 48.129 1.835-2.258 10.162-4.516 19.478-6.775 28.228-12.42 45.871-27.523 74.241-43.471 74.241s-30.769-28.229-43.19-74.241c-2.258-8.892-4.375-18.631-6.633-28.228zM337.048 859.224c18.63 1.835 37.825 4.941 56.457 8.469-2.665 5.427-5.78 10.621-9.316 15.525-17.988 31.849-46.18 56.71-80.028 70.571 11.496-19.514 20.010-40.636 25.265-62.667 2.682-9.739 5.363-20.466 7.622-31.616v-0.283zM412.983 871.222c14.113 3.105 28.228 7.198 43.612 11.15-28.442 28.076-62.767 49.481-100.494 62.667 17.441-14.723 32.447-32.11 44.461-51.517 4.532-7.208 8.678-14.651 12.421-22.3zM321.522 838.758c-17.361-1.694-34.721-2.117-51.658-2.117s-36.837 0-55.469 1.694c-7.295-44.989-11.023-90.485-11.15-136.061h129.427c-0.287 45.71-4.014 91.333-11.15 136.484zM195.622 840.17c-20.888 2.258-42.341 5.363-62.243 9.315-20.383-46.439-31.231-96.5-31.898-147.211h82.567c0.212 46.198 4.082 92.308 11.574 137.896zM114.325 853.438c-16.514 4.093-32.886 8.045-49.4 14.114-39.489-45.975-62.183-104.005-64.361-164.572h81.721c0.732 51.994 11.615 103.343 32.040 151.164v-0.706z" />
<glyph unicode="&#xe93e;" glyph-name="mobile-data" horiz-adv-x="653" d="M46.244 960v-0.288c-12.241-0.076-23.96-4.972-32.616-13.628s-13.553-20.375-13.628-32.616v-931.655c0.151-12.178 5.086-23.808 13.738-32.38s20.328-13.395 32.506-13.432h548.159c12.179 0.037 23.854 4.861 32.507 13.432s13.587 20.202 13.738 32.38v931.655c0 12.291-4.863 24.084-13.527 32.802s-20.426 13.654-32.718 13.731h-548.159zM96.667 196.466v-23.771h449.476v23.628h-28.812v240.009h-76.21v-240.009h-28.813v291.727h-76.641v-291.727h-28.092v167.401h-76.641v-167.401h-28.813v334.802h-76.642v-334.659h-28.813zM208.315 912.027c-3.821 0-7.484-1.518-10.186-4.219s-4.22-6.366-4.22-10.187c0-2.849 0.845-5.635 2.428-8.004s3.834-4.215 6.465-5.306c2.633-1.090 5.53-1.376 8.324-0.82s5.362 1.928 7.377 3.943c2.015 2.015 3.387 4.581 3.942 7.376s0.271 5.691-0.819 8.324c-1.091 2.632-2.938 4.883-5.307 6.466s-5.155 2.428-8.004 2.428zM56.185 841.436h528.278v-757.339h-528.278v757.339zM320.396 59.174c9.513 0.056 18.828-2.716 26.761-7.965s14.126-12.739 17.793-21.516c3.666-8.778 4.64-18.447 2.798-27.78s-6.415-17.907-13.142-24.634c-6.726-6.726-15.301-11.301-24.634-13.143s-19.003-0.868-27.781 2.798c-8.777 3.667-16.266 9.861-21.516 17.795-5.249 7.932-8.022 17.247-7.964 26.76 0.076 12.623 5.124 24.708 14.049 33.635 8.927 8.927 21.011 13.975 33.635 14.051zM254.559 911.307h157.029c3.821 0 7.485-1.518 10.186-4.22 2.702-2.702 4.22-6.366 4.22-10.187s-1.518-7.485-4.22-10.187c-2.701-2.702-6.365-4.219-10.186-4.219h-157.029c-3.821 0-7.484 1.518-10.186 4.219s-4.22 6.366-4.22 10.187c0 3.821 1.518 7.485 4.22 10.187s6.365 4.22 10.186 4.22z" />
<glyph unicode="&#xe93f;" glyph-name="network" horiz-adv-x="998" d="M998.4-54.744c0-1.216-0.239-2.419-0.704-3.542s-1.144-2.144-2.002-3.003c-0.859-0.86-1.878-1.541-2.999-2.006-1.121-0.466-2.322-0.705-3.535-0.705h-315.122c-2.45 0-4.801 0.975-6.533 2.711s-2.707 4.090-2.707 6.545v160.963c0 1.216 0.239 2.419 0.704 3.542 0.463 1.124 1.144 2.144 2.003 3.004 0.858 0.859 1.876 1.54 2.998 2.006 1.121 0.465 2.322 0.704 3.535 0.704h315.122c1.213 0 2.414-0.239 3.535-0.704 1.121-0.466 2.14-1.147 2.999-2.006 0.858-0.86 1.537-1.88 2.002-3.004s0.704-2.326 0.704-3.542v-160.963zM333.606 112.12v-160.963c0.036-1.279-0.188-2.551-0.659-3.739s-1.18-2.268-2.083-3.173c-0.904-0.904-1.981-1.614-3.168-2.086s-2.458-0.696-3.734-0.659h-314.719c-1.243 0.017-2.469 0.282-3.609 0.778s-2.169 1.215-3.029 2.113-1.533 1.96-1.979 3.121c-0.447 1.162-0.658 2.401-0.623 3.645v160.963c0.035 2.445 1.019 4.778 2.744 6.506 1.726 1.729 4.056 2.715 6.496 2.749h314.719c1.243 0.036 2.479-0.175 3.639-0.623s2.22-1.121 3.117-1.983c0.897-0.861 1.614-1.893 2.111-3.035 0.495-1.14 0.759-2.369 0.777-3.615zM379.675 789.777c-0.035-2.467-1.038-4.82-2.792-6.552-1.755-1.732-4.119-2.703-6.582-2.702h-314.586c-1.249-0.036-2.492 0.175-3.66 0.621s-2.235 1.117-3.143 1.978c-0.908 0.859-1.638 1.889-2.148 3.031s-0.791 2.374-0.825 3.625v160.964c0.035 1.251 0.315 2.482 0.825 3.624s1.24 2.173 2.148 3.032c0.908 0.86 1.976 1.531 3.143 1.977s2.411 0.657 3.66 0.621h314.586c2.463 0 4.827-0.971 6.582-2.703s2.757-4.086 2.792-6.553v-160.964zM344.186 810.435v119.917h-13.393v-119.248l13.393-0.669zM164.060 810.435v67.068h-13.393v-67.068h13.393zM193.656 810.435v119.917h-13.393v-119.248l13.393-0.669zM223.119 810.435v119.917h-13.393v-119.248l13.393-0.669zM128.302 870.125c0 3.767-1.116 7.449-3.205 10.582s-5.060 5.574-8.535 7.015c-3.475 1.442-7.299 1.819-10.988 1.084s-7.078-2.549-9.737-5.213c-2.66-2.664-4.471-6.058-5.204-9.752s-0.357-7.524 1.082-11.005c1.439-3.48 3.877-6.456 7.004-8.549s6.804-3.209 10.565-3.209c2.502-0.018 4.983 0.462 7.299 1.413s4.419 2.353 6.189 4.125c1.769 1.772 3.17 3.879 4.119 6.198s1.429 4.804 1.411 7.31zM285.125 810.435v67.068h-13.391v-67.068h13.391zM314.723 810.435v119.917h-13.391v-119.248l13.391-0.669zM297.848-27.649v119.113h-13.393v-119.113h13.393zM118.124-27.649v67.068h-13.392v-67.068h13.392zM147.185-27.649v119.113h-13.391v-119.113h13.391zM176.782-27.649v119.113h-13.393v-119.113h13.393zM81.831 31.639c0 2.495-0.493 4.966-1.45 7.269s-2.36 4.394-4.128 6.152c-1.768 1.759-3.865 3.149-6.172 4.091-2.306 0.943-4.776 1.42-7.267 1.402-4.751-0.401-9.178-2.574-12.405-6.089s-5.018-8.116-5.018-12.891c0-4.776 1.791-9.376 5.018-12.892 3.227-3.515 7.654-5.688 12.405-6.088 2.502-0.018 4.983 0.462 7.299 1.413 2.315 0.95 4.419 2.353 6.189 4.125s3.169 3.878 4.119 6.198 1.429 4.804 1.411 7.31zM239.19-27.917v67.068h-13.391v-67.068h13.391zM268.654-27.917v119.113h-13.393v-119.113h13.393zM963.044-34.758v120.052h-13.391v-119.113l13.391-0.94zM782.918-34.758v67.068h-13.393v-67.068h13.393zM811.98-34.758v120.052h-13.393v-119.113l13.393-0.94zM841.441-34.758v120.052h-13.391v-119.113l13.391-0.94zM746.625 24.799c0.018 2.506-0.463 4.991-1.412 7.31s-2.35 4.425-4.119 6.198-3.873 3.174-6.189 4.125c-2.314 0.951-4.796 1.431-7.299 1.413-3.761 0-7.438-1.116-10.565-3.209s-5.564-5.069-7.004-8.549c-1.439-3.48-1.816-7.31-1.082-11.005 0.733-3.694 2.545-7.089 5.204-9.752s6.048-4.477 9.737-5.212c3.689-0.735 7.512-0.358 10.988 1.084s6.445 3.882 8.535 7.016c2.089 3.132 3.205 6.813 3.205 10.582zM903.985-34.758v67.068h-13.393v-67.068h13.393zM933.448-34.758v120.052h-13.393v-119.113l13.393-0.94zM340.436 290.925v0.268c-34.408 41.137-54.152 92.581-56.114 146.209h73.39c0.754-46.072 10.205-91.585 27.855-134.136-14.732-3.354-29.998-7.645-45.132-12.34zM998.4 789.509c0-1.216-0.239-2.419-0.704-3.542-0.465-1.124-1.144-2.144-2.002-3.003-0.859-0.86-1.878-1.541-2.999-2.006s-2.322-0.705-3.535-0.705h-315.122c-2.45 0-4.801 0.975-6.533 2.711s-2.707 4.090-2.707 6.545v160.963c0 1.215 0.239 2.419 0.704 3.542 0.463 1.123 1.144 2.144 2.003 3.003 0.858 0.859 1.876 1.541 2.998 2.006s2.322 0.705 3.535 0.705h315.122c1.213 0 2.414-0.24 3.535-0.705s2.14-1.146 2.999-2.006c0.858-0.859 1.537-1.88 2.002-3.003s0.704-2.326 0.704-3.542v-160.963zM963.044 810.166v120.186h-13.391v-119.248l13.391-0.938zM782.918 810.166v67.068h-13.393v-67.068h13.393zM811.98 810.166v120.186h-13.393v-119.248l13.393-0.938zM841.441 810.166v120.186h-13.391v-119.248l13.391-0.938zM746.625 869.856c0 2.495-0.494 4.966-1.452 7.269-0.956 2.303-2.359 4.395-4.127 6.153s-3.866 3.148-6.172 4.090c-2.307 0.943-4.776 1.419-7.268 1.402-2.621 0.221-5.262-0.106-7.752-0.959s-4.776-2.215-6.714-3.999c-1.937-1.784-3.484-3.951-4.541-6.365-1.059-2.414-1.604-5.021-1.604-7.657s0.545-5.243 1.604-7.657c1.057-2.414 2.605-4.581 4.541-6.365 1.938-1.784 4.224-3.146 6.714-3.999s5.13-1.18 7.752-0.959c2.502-0.018 4.984 0.462 7.299 1.413 2.316 0.951 4.42 2.354 6.189 4.126s3.169 3.879 4.119 6.198c0.948 2.319 1.43 4.804 1.412 7.31zM903.985 810.166v67.068h-13.393v-67.068h13.393zM933.448 810.166v120.186h-13.393v-119.248l13.393-0.938zM403.246 307.288c18.481 3.757 37.499 6.708 56.114 8.854-6.339 40.247-9.606 80.918-9.777 121.661h-74.193c0.521-44.928 9.992-89.299 27.855-130.515zM476.636 317.484c16.472 1.207 33.347 2.012 49.819 2.012s31.204-0.805 46.337-2.012c6.301 39.935 9.569 80.292 9.777 120.722h-115.575c0.1-40.429 3.323-80.791 9.642-120.722zM590.068 315.74c19.017-2.147 37.633-4.695 56.516-8.452 17.725 41.244 27.059 85.615 27.453 130.515h-74.193c-0.188-40.876-3.456-81.681-9.777-122.063zM663.459 303.534c15.267-3.354 30.4-7.245 45.132-11.402 34.426 40.927 54.221 92.196 56.248 145.672h-73.39c-0.654-46.083-10.109-91.613-27.855-134.136l-0.134-0.133zM696.001 277.779c-13.393 3.756-26.784 7.109-40.177 10.060-3.826-7.566-8.073-14.909-12.722-21.998-10.783-17.556-24.353-33.233-40.178-46.41 34.296 11.804 65.445 31.304 91.068 57.007l2.008 1.341zM638.548 291.192c-17.276 3.488-34.15 5.902-51.427 7.645-2.143-10.999-4.553-21.059-7.098-30.851-4.787-19.775-12.507-38.72-22.9-56.204 30.317 12.713 55.662 34.99 72.184 63.447 3.348 5.097 6.294 10.463 9.24 15.962zM569.846 300.582c-14.33 0.805-29.061 1.609-43.391 1.609s-31.338 0-46.872-1.609c2.143-9.792 4.151-19.451 6.294-27.901 10.982-41.046 24.91-67.068 38.838-67.068s27.855 25.755 38.838 67.068c2.143 8.451 4.553 17.706 6.294 27.901zM462.707 298.838c-16.874-1.743-34.149-4.157-51.425-7.645 2.945-5.499 6.294-10.865 9.24-15.962 16.503-28.422 41.795-50.693 72.051-63.447-10.29 17.521-17.961 36.456-22.767 56.204-2.412 9.792-4.955 19.852-7.099 30.851zM393.871 287.839c-13.393-2.95-26.785-6.304-40.177-10.060l1.339-1.341c25.472-25.697 56.489-45.199 90.666-57.007-15.718 13.285-29.274 28.943-40.177 46.41-4.285 6.842-8.438 14.487-12.321 21.998h0.669zM355.971 617.010c13.393-3.89 25.714-7.244 38.838-9.793 3.322 6.879 7.126 13.513 11.384 19.853 10.903 17.508 24.457 33.21 40.177 46.546-33.957-11.827-64.812-31.176-90.264-56.605h-0.134zM412.084 603.596c17.276-3.352 34.15-5.499 51.025-7.645 2.143 10.597 4.285 19.853 6.697 28.705 4.689 19.913 12.365 38.998 22.767 56.605-30.195-12.786-55.465-34.99-72.051-63.311-2.947-4.695-5.491-9.256-8.438-14.354zM480.385 594.743c15.67-1.341 30.803-1.745 46.472-1.745s28.659 0.94 42.989 1.745c-1.741 9.254-3.749 17.706-5.892 25.755-10.982 40.911-24.91 67.068-38.838 67.068s-27.857-25.889-38.838-67.068c-2.143-8.049-4.151-16.902-5.893-25.755zM587.524 596.352c16.874 1.745 33.748 4.293 51.025 7.647-2.947 4.694-5.491 9.791-8.436 13.413-16.607 28.356-41.93 50.568-72.186 63.313 10.508-17.571 18.234-36.666 22.902-56.605 2.545-8.854 4.553-18.108 6.696-28.303v0.536zM655.825 607.351c13.393 2.952 26.785 5.903 39.24 9.793-25.614 25.423-56.598 44.765-90.666 56.604 15.827-13.226 29.398-28.947 40.177-46.545 4.259-6.34 8.063-12.974 11.384-19.853h-0.134zM708.188 602.792c-14.732-4.293-29.998-8.049-44.73-11.402 18.321-43.078 28.058-89.329 28.659-136.148h72.721c-1.87 54.267-22.079 106.289-57.32 147.551h0.669zM646.182 587.901c-18.615-3.756-37.097-6.304-55.712-8.449 6.688-41.066 10.092-82.602 10.179-124.211h74.193c-0.333 45.725-10.090 90.888-28.659 132.66zM573.596 577.842c-15.668-1.341-30.802-1.743-46.337-2.147-15.535-0.402-32.945 0.805-49.418 2.147-6.637-40.53-9.997-81.53-10.044-122.601h115.576c-0.218 41.053-3.485 82.033-9.777 122.601zM460.564 579.049c-18.615 2.147-37.096 5.097-55.712 8.451-18.428-41.677-28.179-86.679-28.659-132.259h74.194c0.285 41.467 3.688 82.853 10.177 123.808zM387.576 591.389c-14.732 3.354-29.463 7.109-44.328 11.804-35.222-41.306-55.551-93.274-57.722-147.551h73.39c0.603 46.821 10.339 93.071 28.659 136.15v-0.403zM158.971 403.598v22.803h-50.356v-22.803h50.356zM942.286 403.598v22.803h-49.819v-22.803h49.819zM941.349 197.431h-22.767v-49.362h22.767v49.362zM941.349 280.328h-22.767v-49.496h22.767v49.496zM941.349 363.090h-22.767v-49.765h22.767v49.765zM131.918 197.029h-23.303v-49.9h22.766l0.536 49.9zM131.918 279.791h-23.303v-49.765h22.766l0.536 49.765zM847.334 403.598v22.803h-49.819v-22.803h49.819zM131.918 362.687h-23.303v-49.362h22.766l0.536 49.362zM252.448 403.598v22.803h-50.086v-22.803h50.086zM158.702 502.86v-22.803h-50.087v22.803h50.087zM942.019 502.86v-22.803h-49.819v22.803h49.819zM941.080 709.027h-22.766v49.898h22.766v-49.898zM941.080 626.266h-22.766v49.228h22.766v-49.228zM941.080 543.502h-22.766v49.765h22.766v-49.765zM131.651 709.563h-23.035v49.765h22.766l0.269-49.765zM131.651 626.668h-23.035v49.898h22.766l0.269-49.898zM847.067 502.86v-22.803h-49.819v22.803h49.819zM131.651 543.905h-23.035v49.898h22.766l0.269-49.898zM252.18 502.86v-22.803h-49.819v22.803h49.819z" />
<glyph unicode="&#xe940;" glyph-name="user-role" horiz-adv-x="1037" d="M540.477 839.786v-90.132c60.413-5.74 117.709-29.494 164.461-68.184l63.649 63.209c-4.536 13.572-4.357 28.278 0.511 41.734s14.136 24.876 26.307 32.404c12.169 7.528 26.524 10.725 40.739 9.074 14.214-1.652 27.453-8.056 37.572-18.175 10.12-10.118 16.524-23.359 18.176-37.573s-1.546-28.57-9.074-40.739c-7.529-12.17-18.948-21.44-32.404-26.307s-28.163-5.047-41.734-0.511l-63.209-63.209c38.693-46.92 62.442-104.357 68.184-164.901h89.839c5.065 10.193 12.765 18.845 22.301 25.061 9.536 6.214 20.561 9.764 31.932 10.281s22.673-2.017 32.733-7.341 18.514-13.243 24.484-22.935c5.969-9.691 9.236-20.804 9.463-32.184s-2.597-22.614-8.175-32.535c-5.578-9.923-13.71-18.171-23.552-23.89-9.841-5.72-21.033-8.701-32.415-8.637-11.84-0.052-23.452 3.244-33.498 9.509s-18.113 15.245-23.274 25.9h-89.839c-5.627-60.573-29.389-118.043-68.184-164.901l63.209-63.648c13.572 4.536 28.278 4.357 41.734-0.511s24.876-14.136 32.404-26.307c7.528-12.169 10.726-26.524 9.074-40.739s-8.056-27.455-18.176-37.573c-10.118-10.118-23.357-16.522-37.572-18.175-14.214-1.651-28.57 1.546-40.739 9.074-12.17 7.529-21.44 18.948-26.307 32.404-4.868 13.457-5.047 28.163-0.511 41.734l-63.209 63.648c-46.835-38.929-104.285-62.886-164.901-68.769v-89.4c10.51-5.38 19.334-13.551 25.504-23.619 6.168-10.067 9.445-21.64 9.466-33.446-0.029-11.324-3.081-22.435-8.837-32.187-5.757-9.751-14.011-17.791-23.91-23.288-9.901-5.498-21.088-8.255-32.408-7.986-11.322 0.269-22.365 3.552-31.994 9.513s-17.492 14.381-22.78 24.394c-5.289 10.013-7.809 21.257-7.302 32.57 0.506 11.313 4.020 22.285 10.182 31.786s14.747 17.187 24.869 22.263v89.4c-60.492 5.852-117.81 29.82-164.462 68.769l-63.648-63.648c4.593-13.636 4.442-28.424-0.429-41.962-4.872-13.539-14.176-25.034-26.404-32.617-12.227-7.584-26.66-10.812-40.952-9.16-14.294 1.654-27.608 8.088-37.782 18.263-10.175 10.173-16.611 23.489-18.263 37.782s1.576 28.726 9.16 40.954c7.583 12.227 19.078 21.531 32.617 26.403 13.539 4.87 28.326 5.021 41.962 0.429l63.648 63.648c-39.206 46.666-63.203 104.207-68.771 164.901h-89.838c-5.108-10.665-13.144-19.658-23.17-25.928s-21.63-9.559-33.455-9.481c-11.324 0.029-22.435 3.080-32.187 8.837s-17.791 14.011-23.289 23.91-8.254 21.088-7.986 32.408c0.268 11.322 3.551 22.365 9.512 31.994s14.382 17.492 24.396 22.78c10.013 5.289 21.256 7.809 32.569 7.304 11.313-0.507 22.286-4.022 31.787-10.184s17.186-14.747 22.262-24.869h89.4c5.742 60.544 29.491 117.981 68.186 164.901l-63.063 63.209c-13.618-4.534-28.365-4.343-41.861 0.54s-24.95 14.175-32.512 26.373c-7.562 12.197-10.792 26.589-9.164 40.849 1.627 14.259 8.015 27.553 18.131 37.734 10.132 10.269 23.453 16.791 37.779 18.499 14.326 1.706 28.805-1.505 41.068-9.106 12.261-7.602 21.576-19.144 26.418-32.733s4.924-28.422 0.232-42.065l63.648-63.209c46.738 38.714 104.042 62.472 164.462 68.184v89.839c-12.796 6.438-23.046 17.004-29.093 29.99s-7.538 27.631-4.229 41.569 11.222 26.351 22.459 35.234c11.238 8.883 25.144 13.715 39.469 13.715s28.23-4.832 39.468-13.715c11.238-8.883 19.151-21.297 22.46-35.234s1.819-28.583-4.229-41.569c-6.047-12.986-16.297-23.552-29.093-29.99v0.293zM511.213 602.019c15.628 0.029 30.912-4.577 43.922-13.235s23.159-20.979 29.166-35.405c6.007-14.427 7.601-30.31 4.581-45.642-3.021-15.333-10.519-29.426-21.549-40.497-11.030-11.069-25.094-18.621-40.416-21.699-15.32-3.077-31.21-1.541-45.659 4.412s-26.807 16.058-35.514 29.036c-8.705 12.977-13.368 28.244-13.398 43.871 0.038 20.932 8.351 41 23.124 55.828s34.811 23.214 55.741 23.331zM484.145 427.753h55.455c27.583-0.154 53.992-11.18 73.495-30.683 19.505-19.505 30.529-45.914 30.683-73.495v-62.186c39.857 27.991 69.757 67.953 85.364 114.086 15.607 46.135 16.109 96.042 1.431 142.481s-43.77 86.993-83.055 115.779c-39.287 28.785-86.724 44.303-135.427 44.303s-96.138-15.519-135.424-44.303c-39.287-28.786-68.38-69.339-83.058-115.779-14.676-46.438-14.176-96.346 1.431-142.481s45.508-86.095 85.364-114.086v62.186c0.115 27.569 11.108 53.978 30.589 73.486s45.874 30.538 73.443 30.692h-0.292z" />
<glyph unicode="&#xe941;" glyph-name="user-setting" horiz-adv-x="1101" d="M652.265 820.993c61.347-8.216 119.526-32.159 168.884-69.504l77.366 118.25 108.502-108.344-118.408-77.366c37.452-49.152 61.508-107.181 69.818-168.413l138.693 28.777v-154.575l-139.164 29.092c-7.876-61.219-31.8-119.267-69.347-168.256l118.408-77.366-108.502-108.974-77.366 118.88c-49.279-37.54-107.483-61.601-168.884-69.818l29.248-138.693h-153.473l29.248 138.693c-32.448 4.408-64.172 13.079-94.349 25.788-6.436 39.159-24.070 75.617-50.774 104.973-26.705 29.354-61.336 50.35-99.713 60.452 24.695 18.597 43.57 43.855 54.408 72.806 21.484-57.311 62.966-104.922 116.796-134.049s116.378-37.807 176.105-24.44c59.729 13.368 112.608 47.882 148.886 97.178 36.279 49.295 53.508 110.047 48.512 171.048s-31.884 118.138-75.699 160.873c-43.817 42.734-101.608 68.183-162.715 71.653s-121.408-15.273-169.782-52.772c-48.372-37.499-81.554-91.226-93.425-151.269-19.436 33.586-50.129 59.209-86.644 72.335 12.425 33.893 29.923 65.705 51.892 94.349l-118.723 77.366 109.76 109.759 77.051-117.936c49.108 37.527 107.158 61.592 168.413 69.818l-29.248 138.693h153.473l-29.248-139.007zM214.015 564.836c25.658 0 50.74-7.61 72.074-21.864s37.961-34.516 47.78-58.221c9.819-23.706 12.389-49.789 7.383-74.954-5.006-25.166-17.362-48.282-35.505-66.424s-41.258-30.499-66.423-35.505c-25.166-5.006-51.25-2.436-74.956 7.383-23.704 9.819-43.965 26.446-58.22 47.78s-21.864 46.417-21.864 72.074c0.042 34.394 13.723 67.366 38.043 91.686s57.294 38.002 91.687 38.044zM170.3 278.643h90.574c45.599 0 89.331-18.103 121.588-50.331s50.4-75.944 50.441-121.541v-170.771h-432.904v170.771c-0.043 45.325 17.835 88.828 49.737 121.025s75.239 50.473 120.563 50.847z" />
<glyph unicode="&#xe942;" glyph-name="wifi" horiz-adv-x="1178" d="M69.491 219.424h443.419v394.61c0.131 7.666 3.278 14.97 8.762 20.329 5.482 5.359 12.858 8.339 20.524 8.294h90.007c3.773 0.022 7.514-0.701 11.005-2.13s6.666-3.534 9.341-6.195c2.676-2.66 4.799-5.823 6.248-9.307s2.195-7.218 2.195-10.991v-394.61h443.916v-186.963h69.821v-96.461h-1174.729v96.461h69.822l-0.331 186.963zM229.486 960c-38.438-29.51-69.574-67.465-91.002-110.93s-32.572-91.276-32.572-139.735c0-48.458 11.145-96.269 32.572-139.734s52.563-81.418 91.002-110.929l47.982 47.981c-32.435 22.921-58.897 53.292-77.16 88.561s-27.795 74.405-27.795 114.121c0 39.717 9.532 78.854 27.795 114.124s44.724 65.638 77.16 88.559l-47.982 47.982zM325.78 863.54c-26.227-16.348-47.86-39.106-62.858-66.128s-22.868-57.418-22.868-88.324c0-30.906 7.871-61.302 22.868-88.324s36.631-49.78 62.858-66.129l49.637 49.637c-20.445 8.899-37.847 23.574-50.068 42.222-12.221 18.65-18.732 40.461-18.732 62.758s6.51 44.109 18.732 62.758c12.221 18.648 29.623 33.324 50.068 42.223l-49.637 49.305zM944.913 960c38.437-29.51 69.573-67.465 91-110.93s32.572-91.276 32.572-139.735c0-48.458-11.144-96.269-32.572-139.734-21.427-43.464-52.563-81.418-91-110.929l-47.982 47.981c32.435 22.921 58.895 53.292 77.158 88.561s27.795 74.405 27.795 114.121c0 39.717-9.532 78.854-27.795 114.124s-44.723 65.638-77.158 88.559l47.982 47.982zM848.617 863.54c26.228-16.348 47.86-39.106 62.858-66.128 14.999-27.022 22.868-57.418 22.868-88.324s-7.869-61.302-22.868-88.324c-14.998-27.022-36.63-49.78-62.858-66.129l-49.636 49.637c20.328 9.006 37.603 23.721 49.728 42.356s18.58 40.39 18.58 62.624c0 22.232-6.455 43.988-18.58 62.624s-29.4 33.35-49.728 42.358l49.636 49.305zM586.537 819.364c14.668 0.032 29.015-4.287 41.226-12.412s21.738-19.69 27.373-33.231c5.636-13.542 7.127-28.451 4.287-42.839-2.842-14.39-9.888-27.613-20.248-37.997-10.359-10.382-23.567-17.458-37.949-20.332-14.383-2.874-29.295-1.416-42.849 4.189s-25.14 15.107-33.293 27.3c-8.152 12.193-12.504 26.531-12.504 41.198-0.044 9.732 1.838 19.377 5.537 28.379s9.143 17.183 16.018 24.073c6.874 6.889 15.043 12.351 24.037 16.070s18.634 5.623 28.366 5.601z" />
<glyph unicode="&#xe943;" glyph-name="arrow-left-square" d="M962.077 302.252c20.575 0 37.303-16.726 37.303-37.303 0.146-187.981-116.495-304.614-304.324-304.614h-365.862c-188.27 0-304.908 116.641-304.908 304.468v365.714c0 188.367 116.639 305.054 304.908 305.054h365.716c187.098 0 304.617-116.687 304.617-304.908v-125.27c0-20.334-16.53-36.864-36.864-36.864h-0.439v0.829c-20.575 0-37.252 16.677-37.303 37.254v124.050c0 148.87-81.43 230.303-229.865 230.303h-365.716c-148.53 0-230.449-81.92-230.449-230.303v-365.714c0-147.942 81.92-229.862 230.303-229.862h365.716c148.383 0 229.865 81.92 229.865 229.862 0 20.577 16.728 37.303 37.303 37.303zM711.143 484.519h-309.933l120.785 120.296c14.336 14.239 14.384 37.352 0.097 51.688-14.239 14.384-37.4 14.287-51.688 0.097l-183.542-182.76c-0.048 0-0.048 0-0.048-0.048-3.365-3.316-6.047-7.363-7.9-11.849-1.853-4.438-2.828-9.168-2.828-13.946v-0.049c0-0.341 0.084-0.624 0.17-0.911 0.073-0.249 0.148-0.502 0.171-0.795 0.195-4.145 0.877-8.289 2.486-12.239 1.658-3.999 4.145-7.51 7.022-10.728 0.157-0.156 0.263-0.336 0.37-0.517 0.124-0.209 0.249-0.419 0.459-0.604 3.365-3.414 7.412-6.096 11.849-7.948 4.535-1.853 9.216-2.828 14.043-2.828h398.484c20.187 0 36.574 16.384 36.574 36.571s-16.387 36.571-36.574 36.571zM407.759 301.613l62.612-62.318c7.168-7.12 16.481-10.679 25.795-10.679 9.411 0 18.774 3.559 25.991 10.776 14.238 14.336 14.19 37.449-0.146 51.688l-62.61 62.318c-14.336 14.238-37.449 14.238-51.738-0.049-14.239-14.336-14.19-37.498 0.097-51.736z" />
<glyph unicode="&#xe944;" glyph-name="arrow-right-square" d="M61.923 302.252c-20.575 0-37.303-16.726-37.303-37.303-0.146-187.981 116.495-304.614 304.324-304.614h365.862c188.27 0 304.908 116.641 304.908 304.468v365.714c0 188.367-116.639 305.054-304.908 305.054h-365.716c-187.098 0-304.617-116.687-304.617-304.908v-125.27c0-20.334 16.53-36.864 36.864-36.864h0.439v0.829c20.575 0 37.252 16.677 37.303 37.254v124.050c0 148.87 81.43 230.303 229.865 230.303h365.716c148.53 0 230.449-81.92 230.449-230.303v-365.714c0-147.942-81.92-229.862-230.303-229.862h-365.716c-148.383 0-229.865 81.92-229.865 229.862 0 20.577-16.728 37.303-37.303 37.303zM312.857 484.519h309.933l-120.785 120.296c-14.336 14.239-14.384 37.352-0.097 51.688 14.239 14.384 37.4 14.287 51.688 0.097l183.542-182.76c0.048 0 0.048 0 0.048-0.048 3.365-3.316 6.047-7.363 7.9-11.849 1.853-4.438 2.828-9.168 2.828-13.946v-0.049c0-0.341-0.084-0.624-0.17-0.911-0.073-0.249-0.148-0.502-0.171-0.795-0.195-4.145-0.877-8.289-2.486-12.239-1.658-3.999-4.145-7.51-7.022-10.728-0.157-0.156-0.263-0.336-0.37-0.517-0.124-0.209-0.249-0.419-0.459-0.604-3.365-3.414-7.412-6.096-11.849-7.948-4.535-1.853-9.216-2.828-14.043-2.828h-398.484c-20.187 0-36.574 16.384-36.574 36.571s16.387 36.571 36.574 36.571zM616.241 301.613l-62.612-62.318c-7.168-7.12-16.481-10.679-25.795-10.679-9.411 0-18.774 3.559-25.991 10.776-14.238 14.336-14.19 37.449 0.146 51.688l62.61 62.318c14.336 14.238 37.449 14.238 51.738-0.049 14.239-14.336 14.19-37.498-0.097-51.736z" />
<glyph unicode="&#xe945;" glyph-name="dribble" d="M525.719 915.433c-257.859 0-467.052-209.194-467.052-467.052 0-257.855 209.193-467.052 467.052-467.052 258.194 0 467.049 209.196 467.049 467.052 0.341 257.859-208.855 467.052-467.049 467.052zM525.719 833.987c88.544 0 169.994-30.416 235.216-80.771-46.974-60.494-111.525-108.145-193.985-143.292-39.54 72.322-84.826 142.954-135.857 211.559 30.416 8.111 62.183 12.504 94.627 12.504zM351.672 792.080c51.707-67.929 97.669-137.885 137.548-209.532-94.627-27.712-207.504-42.244-337.954-42.92 27.036 110.173 101.386 202.096 200.406 252.451zM139.776 448.043c0 3.38 0.337 6.759 0.675 9.801 149.714 0.338 279.151 17.573 387.295 51.369 9.125-18.587 17.912-37.175 26.023-55.762-131.464-41.23-239.947-125.381-324.435-252.112-55.763 67.249-89.558 153.091-89.558 246.704zM525.719 62.102c-89.22 0-171.343 30.754-236.906 81.783 76.715 120.313 174.384 198.378 295.709 234.539 36.162-94.289 62.522-191.278 79.419-290.299-42.582-16.561-89.22-26.023-138.223-26.023zM739.983 127.324c-16.903 91.587-41.909 181.144-74.69 268.336 72.997 10.476 153.429 7.773 241.302-7.773-16.903-108.145-79.080-201.759-166.612-260.564zM634.202 472.714c-9.463 21.967-19.263 43.934-29.74 65.563 89.898 38.865 162.22 91.924 215.953 158.839 52.381-62.183 85.504-140.927 90.235-227.105-100.372 16.222-192.3 17.235-276.448 2.703z" />
</font>
</defs>
</svg>
